Welcome Guest ( Log In | Register )

> Forum rules / Правила раздела

Here go releases which can't go to New releases forums due lack of information, stolen links or incorrect data and just founded in other sites links with minimum info. Reissue of this releases through Add release form with added/corrected data, info and own links highly welcomed.

Сюда уходят релизы, не пропущенные в основные релизные форумы по причинам отсутствия, недостаточности или неверности/некорректности сопровождающей информации, содержащие ссылки, указывающие на файлы, залитые не автором темы, а так же просто найденные где-то ссылки с минимумом информации. Переоформление тем отсюда через форму Добавления релиза с перезаливкой ссылок крайне приветствуется.

 
Reply to this topicStart new topic
> Clouds - Dor (Bonus Album) (2018), Atmospheric Doom Metal (D)
post Dec 25 2018, 20:57:54
Post #1

Правь статус, ####!111
**************
Group: Металариец
Posts: 15,699
Releases: 10662
From: Г.Харьков
On Forums: 6 years 8 months
Thanks: 177429 time(s)
Unknown


(IMG:https://metalarea.org/images/audiocovers/2018_Dec/acov_tid314875_thumb.jpg)

*Artist: Clouds
*Album: Dor (Bonus Album)
*Year: 2018
*Genre: Atmospheric Doom Metal
*Country: United Kingdom (IMG:https://metalarea.org/forum/style_images/flags/United%20Kingdom.png)
*Format: mp3@CBR320kbps
*Size: 90MB

Tracklist:
1. Buried In Sand (with Kayla Dixon) 08:57
2. Unravel (with Sylvaine) 08:18
3. Hollow (with Caleb Bergen) 08:24
4. Shadows (with Mihu Ilie) 09:47
5. Closeness 04:38
******************************
Total playing time: 40:04




Extended info
United Kingdom / Finland / Netherlands / Faroe Islands / Belgium
Alex Costin Bass
See also: Apocaliptic, Charnabon, Descend into Despair, ex-Ethernus
Luca Breaz Drums
See also: Descend into Despair
Indee Rehal-Sagoo Guitars
See also: ex-Eye of Solitude
Xander Coza Guitars
See also: Deos, Descend into Despair, Eye of Solitude
Daniel Neagoe Vocals, Guitars, Bass, Drums, Keyboards (2013-present)
See also: Bereft of Light, Colosus, Deos, Eye of Solitude, Genune, God Eat God, Mistralth, Obseqvies, Pantheist, Shape of Despair, Vaer, ex-My Shadow, Tableau Mort, ex-Ennui, ex-Fogland, ex-Gothic, ex-Imber Luminis, ex-Sidious, ex-Tiarra, ex-Unfathomable Ruination, ex-Aeonian Sorrow (live), ex-L.O.S.T. (live), ex-Amatris (live)
Irina Movileanu Violin (2018-present)
See also: Ka Gaia An, ex-An Theos


Technical info
(IMG:https://metalarea.org/images/spectrogram/2018_Dec/10e5f6d4c57e338cf68ccfca394c6278.png)
Input File: 02 - Unravel (with Sylvaine).mp3
Channels : 2
Sample Rate : 44100
Precision : 16-bit
Duration : 00:08:18.00 = 21961800 samples = 37350 CDDA sectors
File Size : 19.9M
Bit Rate : 320k
Sample Encoding: MPEG audio (layer I, II or III)
Comments :
Title=Unravel (with Sylvaine)
Artist=Clouds
Album=Dor (Bonus Album)
Tracknumber=2
Year=2018
Genre=Metal



Register
Go to the top of the page
  Insert nick Quick quote
+Quote Post

Reply to this topicStart new topic
2 User(s) are reading this topic (2 Guests and 0 Anonymous Users)
0 Members:

 



- Lo-Fi Version Support form
Copyrights and abuse reports form
Time is now: 20th January 2019 - 07:52:43