Welcome Guest ( Log In | Register )

> Forum rules / Правила раздела

Here go releases which can't go to New releases forums due lack of information, stolen links or incorrect data and just founded in other sites links with minimum info. Reissue of this releases through Add release form with added/corrected data, info and own links highly welcomed.

Сюда уходят релизы, не пропущенные в основные релизные форумы по причинам отсутствия, недостаточности или неверности/некорректности сопровождающей информации, содержащие ссылки, указывающие на файлы, залитые не автором темы, а так же просто найденные где-то ссылки с минимумом информации. Переоформление тем отсюда через форму Добавления релиза с перезаливкой ссылок крайне приветствуется.

> Roger Waters - Live At Žalgiris Arena Kaunas, Lithuania Us & Them Tour 2018-08-26 [bootleg] (2018), Progressve Rock
post Dec 26 2018, 17:26:08
Post #1

Правь статус, ####!111
**************
Group: Металариец
Posts: 36,460
Releases: 537
On Forums: 9 years 7 months
Thanks: 28212 time(s)
Russian Federation


(IMG:http://metalarea.org/images/audiocovers/2018_Dec/acov_tid314899_thumb.jpg)

*Artist: Roger Waters
*Album: Live At Žalgiris Arena Kaunas, Lithuania Us & Them Tour 2018-08-26 [bootleg]
*Year: 2018
*Genre: Progressve Rock
*Country: United Kingdom (IMG:http://metalarea.org/forum/style_images/flags/United%20Kingdom.png)
*Format: mp3@CBR320kbps
*Size: 329MB

Tracklist:
1. Speak To Me 00:57
2. Breathe 02:51
3. One Of These Days 05:28
4. Time 06:03
5. Breathe (Reprise) 01:11
6. The Great Gig In The Sky 05:08
7. Welcome To The Machine 06:24
8. Déjà Vu 05:47
9. The Last Refugee 04:22
10. Picture That 06:51
11. Wish You Were Here 05:01
12. The Happiest Days Of Our Lives 01:59
13. Another Brick In The Wall Part 2 03:18
14. Another Brick In The Wall Part 3 02:58
15. Intro (The Rise Of Battersea Power Station) 02:47
16. Dogs 17:04
17. Pigs (Three Different Ones) 11:40
18. Money 06:26
19. Us And Them 08:02
20. Smell The Roses 05:18
21. Brain Damage 04:30
22. Eclipse 03:50
23. Band introductions 10:40
24. The Bravery Of Being Out Of Range 06:40
25. Comfortably Numb 08:06
******************************
Total playing time: 2:23:21

Technical info
(IMG:http://metalarea.org/images/spectrogram/2018_Dec/d2c4945929d3fb7212c022b74035fc55.png)
Input File: 01-Speak To Me.mp3
Channels : 2
Sample Rate : 44100
Precision : 16-bit
Duration : 00:00:57.86 = 2551714 samples = 4339.65 CDDA sectors
File Size : 2.31M
Bit Rate : 320k
Sample Encoding: MPEG audio (layer I, II or III)
Comments :
Title=Speak To Me
Artist=Roger Waters
Album=2018-08-26 - Zalgiris Arena, Kaunas, Lithuania - Us + Them European Tour
Tracknumber=1



Register


Go to the top of the page
  Insert nick Quick quote
+Quote Post
 
Start new topic
Replies (1 - 2)
post Dec 26 2018, 20:37:55
Post #2

Правь статус, ####!111
**************
Group: Металариец
Posts: 36,460
Releases: 537
On Forums: 9 years 7 months
Thanks: 28212 time(s)
Russian Federation


Отличное шоу. Дед выкладывается по полной и это в его то годы.

Это вам не модные ленивые дэт и блэк метал зажравшиеся молодняки которые часика полтора отыгрывают в лучшем случае и отваливают с видом как будто целый день грузили картофан.


Thanks:
(1) Ghostb,
Go to the top of the page
  Insert nick Quick quote
+Quote Post
post Dec 26 2018, 20:54:08
Post #3

Правь статус, ####!111
**************
Group: Металариец
Posts: 36,460
Releases: 537
On Forums: 9 years 7 months
Thanks: 28212 time(s)
Russian Federation


Единственное - ну почему не играет алмаз? Хоть одну часть бы сыграл (IMG:style_emoticons/default/yuh.gif)
Go to the top of the page
  Insert nick Quick quote
+Quote Post

Reply to this topicStart new topic
2 User(s) are reading this topic (2 Guests and 0 Anonymous Users)
0 Members:

 



- Lo-Fi Version Support form
Copyrights and abuse reports form
Time is now: 20th January 2019 - 08:58:41