Welcome Guest ( Log In | Register )

> Sanity - Sinister Reflections (1998), Melodic Black Metal
post Dec 28 2018, 12:36:06
Post #1

Три Литра
***
Group: Завсегдатай
Posts: 202
Releases: 52
On Forums: 4 years 8 months
Thanks: 1224 time(s)
United States


(IMG:http://metalarea.org/images/audiocovers/2018_Dec/acov_uid106123_1bca3af570b1519f45818cbf6ff6f332_thumb.jpg)

*Artist: Sanity
*Album: Sinister Reflections
*Year: 1998
*Genre: Melodic Black Metal
*Country: Germany (IMG:https://metalarea.org/forum/style_images/flags/Germany.png)
*Format: mp3@CBR320kbps
*Size: 154MB

Tracklist:
1. Pestilence 05:23
2. Timerunner 09:45
3. Schattenverse 10:10
4. Clone Wars 06:52
5. Voyage to the Unknown 03:34
6. Dunkelheit 11:58
7. Herren der Nacht 20:30
8. Cryonic Zombie 14:34
******************************
Total playing time: 01:22:46

Extended info
CD ripped from my own personal collection, enjoy!!!


Technical info
(IMG:https://metalarea.org/images/spectrogram/2018_Dec/5514bb0ff090d7020678d705fd77f590.png)
Input File: 02 Timerunner.mp3
Channels : 2
Sample Rate : 44100
Precision : 16-bit
Duration : 00:09:40.55 = 25602035 samples = 43540.9 CDDA sectors
File Size : 23.2M
Bit Rate : 320k
Sample Encoding: MPEG audio (layer I, II or III)
Comments :
Title=Timerunner
Artist=Sanity
Album=Sinister Reflections
Tracknumber=2
Year=1998
Genre=Melodic Black Metal



Register


This post has been edited by Borderline1991: Dec 28 2018, 17:06:16


Go to the top of the page
  Insert nick Quick quote
+Quote Post
 
Start new topic
Replies (1 - 6)
post Dec 28 2018, 16:00:46
Post #2

Правь статус, ####!111
**************
Group: Металариец
Posts: 4,263
Releases: 161
From: MoscoW
On Forums: 14 years 4 months
Thanks: 4334 time(s)
Russian Federation


Большая облога:
(IMG:https://sanity.berlin/wp-content/uploads/2015/02/Sinister-Reflections.jpg)
(IMG:style_emoticons/default/metaler.gif)


Go to the top of the page
  Insert nick Quick quote
+Quote Post
post Jul 31 2019, 08:50:06
Post #3

but I'm white and furry
**********
Group: Металариец
Posts: 1,387
Releases: 499
From: Москва
On Forums: 15 years 2 months
Thanks: 6692 time(s)
Russian Federation


Оболжка к сожалению значительно лучше музыки, вместо мелодик блэка там какое-то заунывное чистоголосое блеяние с периодическим скримом, а при такой обложке ожидаешь от альбома чего-то прям восхитительно красивого...
Go to the top of the page
  Insert nick Quick quote
+Quote Post
post Jul 31 2019, 09:02:38
Post #4

Правь статус, ####!111
**************
Group: Металариец
Posts: 48,650
Releases: 813
On Forums: 11 years 10 months
Thanks: 42861 time(s)
Russian Federation


Обложка здесь действительно восхитительно-великоленпна, подтверждаю. Обожаю такие мотивы еще с того момента, как лет 13 назад узрел обложку дебютника Wallachia (IMG:style_emoticons/default/27.gif)
Go to the top of the page
  Insert nick Quick quote
+Quote Post
post Aug 25 2019, 22:01:22
Post #5

Правь статус, ####!111
**************
Group: Металариец
Posts: 2,188
Releases: 1
From: ecuador
On Forums: 12 years 8 months
Thanks: 1763 time(s)
Ecuador


please re upload it, thanks in advance
Go to the top of the page
  Insert nick Quick quote
+Quote Post
post Aug 27 2019, 01:46:20
Post #6

Четыре Литра
****
Group: Металариец
Posts: 306
Releases: 0
From: Hellisipolis
On Forums: 12 years 3 months
Thanks: 34 time(s)
Antarctica


hard to find.
please RE-UP


Thanks:
Go to the top of the page
  Insert nick Quick quote
+Quote Post
post Sep 25 2019, 13:40:36
Post #7

Три Литра
***
Group: Завсегдатай
Posts: 202
Releases: 52
On Forums: 4 years 8 months
Thanks: 1224 time(s)
United States


Register


Go to the top of the page
  Insert nick Quick quote
+Quote Post

Reply to this topicStart new topic
2 User(s) are reading this topic (2 Guests and 0 Anonymous Users)
0 Members:

 



- Lo-Fi Version Support form
Copyrights and abuse reports form
Time is now: 21st April 2021 - 16:02:35