Welcome Guest ( Log In | Register )

> Vanha - Melancholia (2018), Atmospheric Doom/Death Metal
post Dec 28 2018, 18:37:23
Post #1

Правь статус, ####!111
**************
Group: Металариец
Posts: 27,659
Releases: 20107
From: Г.Харьков
On Forums: 9 years 5 months
Thanks: 406666 time(s)
Unknown


(IMG:https://metalarea.org/images/audiocovers/2018_Dec/acov_tid315044_thumb.jpg)

*Artist: Vanha
*Album: Melancholia
*Year: 2018
*Genre: Atmospheric Doom/Death Metal
*Country: Sweden (IMG:https://metalarea.org/forum/style_images/flags/Sweden.png)
*Format: mp3@CBR320kbps
*Size: 104MB

Tracklist:
1. The Road 08:09
2. Storm of Grief 06:49
3. Starless Sleep 07:07
4. Your Heart in My Hands 06:45
5. Fade Away 07:29
6. The Sorrowful 09:37
******************************
Total playing time: 45:56




Extended info
Jan "Janne" Johansson All instruments, Vocals (2016-present)
See also: Frostvang


Technical info
(IMG:https://metalarea.org/images/spectrogram/2018_Dec/8f278f8186898a4c5441358a4c83540a.png)
Input File: 04 Your Heart In My Hands.mp3
Channels : 2
Sample Rate : 44100
Precision : 16-bit
Duration : 00:06:45.13 = 17866189 samples = 30384.7 CDDA sectors
File Size : 16.3M
Bit Rate : 322k
Sample Encoding: MPEG audio (layer I, II or III)
Comments :
Title=Your Heart In My Hands
Artist=VANHA
Album=Melancholia
Tracknumber=4
Year=2018



Register

Register


Go to the top of the page
  Insert nick Quick quote
+Quote Post
 
Start new topic
Replies (1 - 7)
post Dec 29 2018, 03:46:34
Post #2

\m/
Group Icon
Group: S-moderation team
Posts: 7,952
Releases: 19
From: Петропавловск-Камчатский
On Forums: 12 years 4 months
Thanks: 8053 time(s)
Russian Federation


Added links by LordOvDarkness
Go to the top of the page
  Insert nick Quick quote
+Quote Post
post Dec 29 2018, 11:32:03
Post #3

Common dweller of hell
**************
Group: Металариец
Posts: 4,042
Releases: 12
From: Dnipro
On Forums: 13 years 3 months
Thanks: 1579 time(s)
Ukraine


Ну это должно быть очень интересно.
Go to the top of the page
  Insert nick Quick quote
+Quote Post
post Dec 29 2018, 12:07:19
Post #4

Восемь Литров
********
Group: Металариец
Posts: 840
Releases: 36
From: Ивантеевка, Московская область
On Forums: 13 years 10 months
Thanks: 751 time(s)
Russian Federation


По первому прослушиванию - весьма годная вещь. Меланхолия, итить её, изо всех щелей. (IMG:style_emoticons/default/20.gif)
Go to the top of the page
  Insert nick Quick quote
+Quote Post
post Dec 30 2018, 11:32:47
Post #5

Восемь Литров
********
Group: Металариец
Posts: 882
Releases: 0
From: South Of Heaven
On Forums: 14 years 2 months
Thanks: 423 time(s)
Ukraine


Шикарная музыка, действительно "Melancholia " (IMG:style_emoticons/default/pray.gif)
Релизёру- more (IMG:style_emoticons/default/9.gif)
Go to the top of the page
  Insert nick Quick quote
+Quote Post
post Jan 1 2019, 10:30:37
Post #6

Common dweller of hell
**************
Group: Металариец
Posts: 4,042
Releases: 12
From: Dnipro
On Forums: 13 years 3 months
Thanks: 1579 time(s)
Ukraine


Великолепный альбом, абсолютно под стать предыдущему творению. Отличное продолжение.
Есть один минус, очень слабый уровень записи, пришлось подымать на 80%.


Thanks:
(1) Whitefish,
Go to the top of the page
  Insert nick Quick quote
+Quote Post
post Jan 1 2019, 14:01:04
Post #7

Маньяк
**********
Group: Металариец
Posts: 1,487
Releases: 0
From: Russian Federation - St.Petersburg
On Forums: 12 years 7 months
Thanks: 398 time(s)
Russian Federation


Добрая вещь! Спасибо! (IMG:style_emoticons/default/20.gif)
Go to the top of the page
  Insert nick Quick quote
+Quote Post
post Jan 4 2019, 20:02:11
Post #8

Четыре Литра
****
Group: Металариец
Posts: 372
Releases: 23
On Forums: 12 years 7 months
Thanks: 526 time(s)
United Kingdom


Есть парочку повторяющихся ходов, но в целом прекрасно.
На втором треке при "симфоническом проигрыше" понял, что альбом в десятке интересных за этот год (имхо, конечно).
Go to the top of the page
  Insert nick Quick quote
+Quote Post

Reply to this topicStart new topic
1 User(s) are reading this topic (1 Guests and 0 Anonymous Users)
0 Members:

 



- Lo-Fi Version Support form
Copyrights and abuse reports form
Time is now: 16th October 2021 - 19:43:32