Welcome Guest ( Log In | Register )

> Heavens Heels - Naked Shame (2018), Gothic/Doom Metal
post Dec 28 2018, 18:52:45
Post #1

Аннигилятор пивА
Group Icon
Group: V.I.P
Posts: 52,360
Releases: 16550
From: Koenigsberg - TILZIT
On Forums: 13 years 10 months
Thanks: 364665 time(s)
Russian Federation


(IMG:https://metalarea.org/images/audiocovers/2018_Dec/acov_tid315048_thumb.jpg)

*Artist: Heavens Heels
*Album: Naked Shame
*Year: 2018
*Genre: Gothic/Doom Metal
*Country: United States (IMG:https://metalarea.org/forum/style_images/flags/United%20States.png)
*Format: mp3@CBR320kbps
*Size: 88MB

Tracklist:
01. Morning Star
02. Thirty Pieces of Silver
03. Cypher Slayer
04. Topiary Maze
05. Vervais Ave.
06. Ave Bellum
07. Ashes to Ashes
08. Iyovee
******************************
Total playing time: 41:53



Extended info





Technical info
(IMG:https://metalarea.org/images/spectrogram/2018_Dec/f81c25fe5512600561c6309f19b9c016.png)
Input File: 02. Thirty Pieces of Silver.mp3
Channels : 2
Sample Rate : 44100
Precision : 16-bit
Duration : 00:04:41.98 = 12435494 samples = 21148.8 CDDA sectors
File Size : 11.3M
Bit Rate : 320k
Sample Encoding: MPEG audio (layer I, II or III)
Comments :
Title=Thirty Pieces of Silver
Artist=Heavens Heels
Album=Naked Shame
Tracknumber=2
Year=2018
Discnumber=1



Register


Go to the top of the page
  Insert nick Quick quote
+Quote Post
 
Start new topic
Replies (1 - 2)
post Dec 29 2018, 15:55:27
Post #2

Три Литра
***
Group: Завсегдатай
Posts: 247
Releases: 1
On Forums: 10 years 1 month
Thanks: 66 time(s)
Ukraine


Ну и вокал... (IMG:style_emoticons/default/22.gif) (IMG:style_emoticons/default/17.gif)


Thanks:
Go to the top of the page
  Insert nick Quick quote
+Quote Post
post Dec 30 2018, 11:59:15
Post #3

Семь Литров
*******
Group: Металариец
Posts: 747
Releases: 0
From: South Of Heaven
On Forums: 12 years 8 months
Thanks: 349 time(s)
Ukraine


ЦИТАТА(woldemort @ 29th December 2018 - 16:55:27) *
Ну и вокал...

Та да... из-за него я и альбом весь ниасилил.. (IMG:style_emoticons/default/23.gif)
Go to the top of the page
  Insert nick Quick quote
+Quote Post

Reply to this topicStart new topic
2 User(s) are reading this topic (2 Guests and 0 Anonymous Users)
0 Members:

 



- Lo-Fi Version Support form
Copyrights and abuse reports form
Time is now: 3rd April 2020 - 04:47:40