Welcome Guest ( Log In | Register )

> Forum rules / Правила раздела

Here go releases which can't go to New releases forums due lack of information, stolen links or incorrect data and just founded in other sites links with minimum info. Reissue of this releases through Add release form with added/corrected data, info and own links highly welcomed.

Сюда уходят релизы, не пропущенные в основные релизные форумы по причинам отсутствия, недостаточности или неверности/некорректности сопровождающей информации, содержащие ссылки, указывающие на файлы, залитые не автором темы, а так же просто найденные где-то ссылки с минимумом информации. Переоформление тем отсюда через форму Добавления релиза с перезаливкой ссылок крайне приветствуется.

> Extipicium - Through The Entrails Of Darkness​.​.​. To The Cosmic Awakening (2018), Black Metal
post Dec 28 2018, 23:27:36
Post #1

Group: Дух
Posts: 2
Releases: 0
On Forums: 1 year 1 month
Thanks: 5 time(s)
Slovenia


(IMG:https://metalarea.org/images/audiocovers/2018_Dec/acov_tid315054_thumb.jpg)

*Artist: Extipicium
*Album: Through The Entrails Of Darkness​.​.​. To The Cosmic Awakening
*Year: 2018
*Genre: Black Metal
*Country: Argentina (IMG:https://metalarea.org/forum/style_images/flags/Argentina.png)
*Format: mp3@CBR320kbps
*Size: 118MB

Tracklist:
1. Baptized In Sulphur
2. Litanies Of Satan
3. Armada
4. The Last Sigh Of The Flame
5. Yule Horror
6. Mooneater
7. Astrophobos
8. Entrails Of Darkness
9. Calchas
10. Cosmic Revelations
11. Abscense Of Life
******************************
Total playing time: 50:40



Technical info
(IMG:https://metalarea.org/images/spectrogram/2018_Dec/9db4c66d83fa0ded9fad5931700bbaa6.png)
Input File: 02 Litanies Of Satan.mp3
Channels : 2
Sample Rate : 44100
Precision : 16-bit
Duration : 00:04:33.57 = 12064525 samples = 20517.9 CDDA sectors
File Size : 11.1M
Bit Rate : 325k
Sample Encoding: MPEG audio (layer I, II or III)
Comments :
Title=Litanies Of Satan
Artist=Extipicium
Album=Through The Entrails Of Darkness... To The Cosmic Awakening
Tracknumber=2
Year=2018



Register


Thanks:
Go to the top of the page
  Insert nick Quick quote
+Quote Post
 
Start new topic
Replies (1 - 1)
post Dec 29 2018, 03:49:35
Post #2

\m/
Group Icon
Group: S-moderation team
Posts: 7,589
Releases: 19
From: Петропавловск-Камчатский
On Forums: 9 years 7 months
Thanks: 6954 time(s)
Russian Federation



 ! 

Rules 2.4
 
Go to the top of the page
  Insert nick Quick quote
+Quote Post

Reply to this topicStart new topic
2 User(s) are reading this topic (2 Guests and 0 Anonymous Users)
0 Members:

 



- Lo-Fi Version Support form
Copyrights and abuse reports form
Time is now: 20th January 2019 - 01:32:57