Welcome Guest ( Log In | Register )

> Forum rules / Правила раздела

Here go releases which can't go to New releases forums due lack of information, stolen links or incorrect data and just founded in other sites links with minimum info. Reissue of this releases through Add release form with added/corrected data, info and own links highly welcomed.

Сюда уходят релизы, не пропущенные в основные релизные форумы по причинам отсутствия, недостаточности или неверности/некорректности сопровождающей информации, содержащие ссылки, указывающие на файлы, залитые не автором темы, а так же просто найденные где-то ссылки с минимумом информации. Переоформление тем отсюда через форму Добавления релиза с перезаливкой ссылок крайне приветствуется.

> Mrtva Goša - Demonic Dusk Arising Ii [demo] (2006), Black Metal
post Dec 28 2018, 23:45:34
Post #1

Group: Дух
Posts: 2
Releases: 0
On Forums: 1 year 1 month
Thanks: 5 time(s)
Slovenia


(IMG:https://metalarea.org/images/audiocovers/2018_Dec/acov_tid315055_thumb.JPG)

*Artist: Mrtva Goša
*Album: Demonic Dusk Arising Ii [demo]
*Year: 2006
*Genre: Black Metal
*Country: Slovenia (IMG:https://metalarea.org/forum/style_images/flags/Slovenia.png)
*Format: mp3@CBR128kbps (IMG:https://metalarea.org/images/bit_low.gif)
*Size: 22MB

Tracklist:
01. Defenders Of Armageddon
02. Kristalna Zima
03. Journey For Eternity
04. Purification
05. Under Stars Unknown
******************************
Total playing time: 25:03

Preview 1

Technical info
(IMG:https://metalarea.org/images/spectrogram/2018_Dec/dd433dd524df5ad0ab1ff9e4800dea91.png)
Input File: 02 - Kristalna Zima.mp3
Channels : 2
Sample Rate : 44100
Precision : 16-bit
Duration : 00:03:23.84 = 8989256 samples = 15287.9 CDDA sectors
File Size : 3.26M
Bit Rate : 128k
Sample Encoding: MPEG audio (layer I, II or III)
Comments :
Title=Kristalna Zima
Artist=Mrtva Gosa
Album=Demonic Dusk Arising II (Demo)
Tracknumber=02
Year=2005
Genre=Black Metal



Register


Go to the top of the page
  Insert nick Quick quote
+Quote Post
 
Start new topic
Replies (1 - 1)
post Dec 29 2018, 03:50:32
Post #2

\m/
Group Icon
Group: S-moderation team
Posts: 7,589
Releases: 19
From: Петропавловск-Камчатский
On Forums: 9 years 7 months
Thanks: 6954 time(s)
Russian Federation



 ! 

Rules 2.4
Name of the archive MUST contain your nickname on metalarea.org or term "metalarea.org" for easier determination of your authorship of this upload. Otherwise, release will be sent to the "Find Area", where it will wait for someone who can personally mirror it and re-release it under their own name.
 
Go to the top of the page
  Insert nick Quick quote
+Quote Post

Reply to this topicStart new topic
2 User(s) are reading this topic (2 Guests and 0 Anonymous Users)
0 Members:

 



- Lo-Fi Version Support form
Copyrights and abuse reports form
Time is now: 20th January 2019 - 02:36:31