Welcome Guest ( Log In | Register )

> Atomic Fear - Infernal Militia (2018), Old School Thrash Metal
post Dec 29 2018, 17:06:30
Post #1

Правь статус, ####!111
**************
Group: Металариец
Posts: 25,773
Releases: 18452
From: Г.Харьков
On Forums: 8 years 11 months
Thanks: 364223 time(s)
Unknown


(IMG:https://metalarea.org/images/audiocovers/2018_Dec/acov_tid315074_thumb.jpg)

*Artist: Atomic Fear
*Album: Infernal Militia
*Year: 2018
*Genre: Old School Thrash Metal
*Country: Mexico (IMG:https://metalarea.org/forum/style_images/flags/Mexico.png)
*Format: mp3@CBR320kbps
*Size: 100MB

Tracklist:
1. Metal Slug
2. Revolution
3. Infection
4. Space Invaders
5. Cock Sucker
6. Infernal Militia
7. Fake Liberty
8. Internal Nightmare
9. Slave of Religion
10. Zombie Commandos
11. From the Other Dimension
******************************
Total playing time: 44:56



Extended info
Luis Bello Bass, Vocals
Said Hernandez Drums
Edson Peralta Guitars (lead)
Raúl Guantecillo Guitars (rhythm)
Stringmanic Guitars (lead) (2014-present)



Technical info
(IMG:https://metalarea.org/images/spectrogram/2018_Dec/49de282efef1ee5ad8a274cfeb49dc77.png)
Input File: 04 - Space Invaders.mp3
Channels : 2
Sample Rate : 44100
Precision : 16-bit
Duration : 00:04:47.44 = 12676060 samples = 21557.9 CDDA sectors
File Size : 11.5M
Bit Rate : 320k
Sample Encoding: MPEG audio (layer I, II or III)
Comments :
Title=Space Invaders
Artist=Atomic Fear
Album=Infernal Militia
Tracknumber=4
Year=2018
Genre=Thrash Metal



Register


Go to the top of the page
  Insert nick Quick quote
+Quote Post
 
Start new topic
Replies (1 - 6)
post Dec 29 2018, 21:17:40
Post #2

Правь статус, ####!111
**************
Group: Металариец
Posts: 25,773
Releases: 18452
From: Г.Харьков
On Forums: 8 years 11 months
Thanks: 364223 time(s)
Unknown


Cloud Mail 320
Register


Go to the top of the page
  Insert nick Quick quote
+Quote Post
post Dec 30 2018, 14:21:24
Post #3

\m/
Group Icon
Group: S-moderation team
Posts: 7,905
Releases: 19
From: Петропавловск-Камчатский
On Forums: 11 years 10 months
Thanks: 7937 time(s)
Russian Federation


Отличный бодрячковый трэш (IMG:style_emoticons/default/metaler.gif)


Thanks:
Go to the top of the page
  Insert nick Quick quote
+Quote Post
post Dec 31 2018, 07:06:47
Post #4

Шесть Литров
******
Group: Металариец
Posts: 636
Releases: 0
On Forums: 11 years 9 months
Thanks: 158 time(s)
Ukraine


Достойный альбом, этим шикарным трэш релизом можно смело закрывать этот год!! Украшением колекции за этот год, однозначно в копилку


Thanks:
(1) russ777,
Go to the top of the page
  Insert nick Quick quote
+Quote Post
post Dec 31 2018, 09:32:50
Post #5

Dr.
**************
Group: Металариец
Posts: 5,331
Releases: 0
From: Primorye.ru
On Forums: 10 years 3 weeks
Thanks: 1107 time(s)
Russian Federation


Разделяю восторги! Дебютный альбом придется по душе всем, кто любит добротный трэш! Тут и энергия, и напор, и разнообразие в подаче материала (IMG:style_emoticons/default/metaler.gif)


Thanks:
(1) russ777,
Go to the top of the page
  Insert nick Quick quote
+Quote Post
post Jan 1 2019, 17:43:55
Post #6

Common dweller of hell
**************
Group: Металариец
Posts: 3,675
Releases: 12
From: Dnipro
On Forums: 12 years 9 months
Thanks: 1438 time(s)
Ukraine


Великолепный трэшак, по музыке и напору похожи на греков Suicidal Angels


Thanks:
(1) russ777,
Go to the top of the page
  Insert nick Quick quote
+Quote Post
post Jan 9 2019, 19:03:41
Post #7

Восемь Литров
********
Group: Металариец
Posts: 874
Releases: 0
From: South Of Heaven
On Forums: 13 years 8 months
Thanks: 412 time(s)
Ukraine


Шикардос, как говорится !!! (IMG:style_emoticons/default/metaler.gif)
Релизёру велика шана! (IMG:style_emoticons/default/9.gif) (IMG:style_emoticons/default/9.gif) (IMG:style_emoticons/default/9.gif)
Go to the top of the page
  Insert nick Quick quote
+Quote Post

Reply to this topicStart new topic
2 User(s) are reading this topic (2 Guests and 0 Anonymous Users)
0 Members:

 



- Lo-Fi Version Support form
Copyrights and abuse reports form
Time is now: 18th April 2021 - 01:36:37