Welcome Guest ( Log In | Register )

> Habitual Depravity - Realms Of Abysmal Servitude (2018), Technical Brutal Death Metal
post Dec 30 2018, 00:34:00
Post #1

Правь статус, ####!111
**************
Group: Металариец
Posts: 21,254
Releases: 14534
From: Г.Харьков
On Forums: 7 years 10 months
Thanks: 259080 time(s)
Unknown


(IMG:https://metalarea.org/images/audiocovers/2018_Dec/acov_tid315083_thumb.jpg)

*Artist: Habitual Depravity
*Album: Realms Of Abysmal Servitude
*Year: 2018
*Genre: Technical Brutal Death Metal
*Country: Australia (IMG:https://metalarea.org/forum/style_images/flags/Australia.png)
*Format: mp3@CBR320kbps
*Size: 70MB

Tracklist:
1. Prelude to Iniquity 01:57
2. Vile Retribution 01:55
3. Sanguinary Revelations 03:14
4. Enduring Misanthropic Horror 04:37
5. Indoctrinated 04:48
6. Malformation in Essence 05:17
7. Psychotic Manifestation 02:43
8. Realms of Abysmal Servitude 04:43
******************************
Total playing time: 29:14




Extended info
Jono All instruments
Marco Pitruzzella Drums


Technical info
(IMG:https://metalarea.org/images/spectrogram/2018_Dec/4b8a4f2cc3790fe1bfa16089cbb0a5f5.png)
Input File: 03 Sanguinary Revelations.mp3
Channels : 2
Sample Rate : 44100
Precision : 16-bit
Duration : 00:03:14.78 = 8589754 samples = 14608.4 CDDA sectors
File Size : 8.01M
Bit Rate : 329k
Sample Encoding: MPEG audio (layer I, II or III)
Comments :
Title=Sanguinary Revelations
Artist=Habitual Depravity
Album=Realms of Abysmal Servitude
Tracknumber=3
Year=2018



Register


Go to the top of the page
  Insert nick Quick quote
+Quote Post
 
Start new topic
Replies (1 - 2)
post Dec 30 2018, 08:59:24
Post #2

hearer & reader
**************
Group: Металариец
Posts: 8,508
Releases: 130
From: Moscow
On Forums: 12 years 6 months
Thanks: 8358 time(s)
Russian Federation


Из юго-восточной Азии вирус бестолкового техничного брутализма проник в Австралию...


Thanks:
Go to the top of the page
  Insert nick Quick quote
+Quote Post
post Dec 30 2018, 11:52:16
Post #3

Добрейшей души Мегаманьяк
***********
Group: Металариец
Posts: 1,585
Releases: 0
From: Bashkortostan, Өфө
On Forums: 12 years 1 month
Thanks: 695 time(s)
Russian Federation


По моему такую музыку пора переставать называть death metal - ни мрачности, ни злобы, ни агрессии. Трещотка какая-то. Я б назвал brutal speed metal. Ну а поскольку тут всё сделано на хорошем техническом уровне - пусть будет technical brutal speed metal.
Безэмоционально - удолил.


Thanks:
Go to the top of the page
  Insert nick Quick quote
+Quote Post

Reply to this topicStart new topic
1 User(s) are reading this topic (1 Guests and 0 Anonymous Users)
0 Members:

 



- Lo-Fi Version Support form
Copyrights and abuse reports form
Time is now: 3rd April 2020 - 06:12:54