Welcome Guest ( Log In | Register )

> Caustic Vomit - Festering Odes To Deformity [demo] (2018), Old School Death/Doom Metal
post Dec 31 2018, 08:24:53
Post #1

Аннигилятор пивА
Group Icon
Group: V.I.P
Posts: 52,358
Releases: 16557
From: Koenigsberg - TILZIT
On Forums: 13 years 3 months
Thanks: 362232 time(s)
Russian Federation


(IMG:https://metalarea.org/images/audiocovers/2018_Dec/acov_tid315137_thumb.png)

*Artist: Caustic Vomit
*Album: Festering Odes To Deformity [demo]
*Year: 2018
*Genre: Old School Death/Doom Metal
*Country: Russian Federation (IMG:https://metalarea.org/forum/style_images/flags/Russian%20Federation.png)
*Format: mp3@CBR320kbps
*Size: 71MB

Tracklist:
1. Intro / Immured in Devouring Rot 11:13
2. Churning Bowel Tunnels 09:13
3. Once Coffined Malformities 10:03
******************************
Total playing time: 30:29



Extended info
S. - Guitars / Vox
R. - Guitars
M. - Bass
L. - Drums


Technical info
(IMG:https://metalarea.org/images/spectrogram/2018_Dec/4dad000dd2cf9cfe52a3d7ccb8ac4a06.png)
Input File: Caustic Vomit - Festering Odes To Deformity - 02 Churning Bowel Tunnels.mp3
Channels : 2
Sample Rate : 44100
Precision : 16-bit
Duration : 00:09:13.30 = 24400706 samples = 41497.8 CDDA sectors
File Size : 22.3M
Bit Rate : 322k
Sample Encoding: MPEG audio (layer I, II or III)
Comments :
Title=Churning Bowel Tunnels
Artist=Caustic Vomit
Album=Festering Odes To Deformity
Tracknumber=2
Year=2018



Register


Go to the top of the page
  Insert nick Quick quote
+Quote Post
 
Start new topic
Replies (1 - 4)
post Dec 31 2018, 18:48:44
Post #2

Мегаманьяк
***********
Group: Металариец
Posts: 1,810
Releases: 0
From: Украина
On Forums: 10 years 8 months
Thanks: 1022 time(s)
Ukraine


А вот и мрачняк по старым рецептам под Новый Год! Думаю будет отличный полноформатник, если не бросят и не поменяют стилистику. Смачная штуковина (IMG:style_emoticons/default/27.gif) .
Go to the top of the page
  Insert nick Quick quote
+Quote Post
post Jan 4 2019, 21:04:29    Сейчас играет: 100 Years Of Solitude - A Blackened Earth
Post #3

antithesis
**************
Group: Металариец
Posts: 2,788
Releases: 31
From: VRN
On Forums: 9 years 3 months
Thanks: 1631 time(s)
Russian Federation


mirror, pls
Go to the top of the page
  Insert nick Quick quote
+Quote Post
post Jan 5 2019, 20:29:43
Post #4

Семь Литров
*******
Group: Металариец
Posts: 781
Releases: 19
From: Saint-Petersburg
On Forums: 10 years 1 week
Thanks: 1697 time(s)
Russian Federation


ЦИТАТА(Razorbladeswaltz @ Jan 5 2019, 00:04:29) *
mirror, pls

320 kbps, 71 mb, bandcamp rip.
Register


Go to the top of the page
  Insert nick Quick quote
+Quote Post
post Jan 10 2019, 14:56:29
Post #5

Schuldinerist
**************
Group: Металариец
Posts: 10,323
Releases: 33
From:
On Forums: 12 years 5 months
Thanks: 6478 time(s)
Russian Federation


Давно мне не попадался хороший дум-дэт, чтобы пробирало... прямо соскучился.
Решил слухануть эту российскую демку и... не услышал того, на что рассчитывал.
Не плохо, но уровень не тот.
6/10
Go to the top of the page
  Insert nick Quick quote
+Quote Post

Reply to this topicStart new topic
2 User(s) are reading this topic (2 Guests and 0 Anonymous Users)
0 Members:

 



- Lo-Fi Version Support form
Copyrights and abuse reports form
Time is now: 16th September 2019 - 23:10:40