Welcome Guest ( Log In | Register )

> Dimension Eleven - The Transcendental Journey (2019), Progressive Metal
post Jan 3 2019, 00:10:56
Post #1

Аннигилятор пивА
Group Icon
Group: V.I.P
Posts: 52,360
Releases: 16550
From: Koenigsberg - TILZIT
On Forums: 14 years 1 week
Thanks: 365295 time(s)
Russian Federation


(IMG:https://metalarea.org/images/audiocovers/2019_Jan/acov_tid315243_thumb.jpg)

*Artist: Dimension Eleven
*Album: The Transcendental Journey
*Year: 2019
*Genre: Progressive Metal
*Country: Poland (IMG:https://metalarea.org/forum/style_images/flags/Poland.png)
*Format: mp3@CBR320kbps
*Size: 79MB

Tracklist:
01. Beneath the Alien Dreams
02. Stardust
03. Superreality
04. Delusions
05. Divine
06. Awaken
07. Point of No Return: Pt. 1 (Far from Beyond Eternal Depths)
******************************
Total playing time: 32:48



Extended info
Bartłomiej Bęgziak - Guitars
Paweł Pilarski - Bass
Dariusz Sieczkowski - Keyboards
Bartłomiej Tokarz - Vocals


Technical info
(IMG:https://metalarea.org/images/spectrogram/2019_Jan/26eb79322d25a7b5b63e5f557e6e79f4.png)
Input File: 03 Superreality.mp3
Channels : 2
Sample Rate : 44100
Precision : 16-bit
Duration : 00:04:37.91 = 12255611 samples = 20842.9 CDDA sectors
File Size : 11.7M
Bit Rate : 338k
Sample Encoding: MPEG audio (layer I, II or III)
Comments :
Title=Superreality
Artist=Dimension Eleven
Album=The Transcendental Journey
Tracknumber=3/7
Year=2019
Genre=Progressive Metal
Discnumber=1/1



Register


Go to the top of the page
  Insert nick Quick quote
+Quote Post
 
Start new topic
Replies (1 - 2)
post Jan 3 2019, 12:42:05
Post #2

Аннигилятор пивА
Group Icon
Group: V.I.P
Posts: 52,360
Releases: 16550
From: Koenigsberg - TILZIT
On Forums: 14 years 1 week
Thanks: 365295 time(s)
Russian Federation


MIRROR
Register


Thanks:
Go to the top of the page
  Insert nick Quick quote
+Quote Post
post Jan 4 2019, 21:39:52
Post #3

Правь статус, ####!111
**************
Group: Металариец
Posts: 2,459
Releases: 11
From: Canada
On Forums: 12 years 11 months
Thanks: 1639 time(s)
Canada




Thanks:
(1) Ogidni,
Go to the top of the page
  Insert nick Quick quote
+Quote Post

Reply to this topicStart new topic
2 User(s) are reading this topic (2 Guests and 0 Anonymous Users)
0 Members:

 



- Lo-Fi Version Support form
Copyrights and abuse reports form
Time is now: 5th June 2020 - 20:24:47