Welcome Guest ( Log In | Register )

> Forum rules / Правила раздела

Here go releases which can't go to New releases forums due lack of information, stolen links or incorrect data and just founded in other sites links with minimum info. Reissue of this releases through Add release form with added/corrected data, info and own links highly welcomed.

Сюда уходят релизы, не пропущенные в основные релизные форумы по причинам отсутствия, недостаточности или неверности/некорректности сопровождающей информации, содержащие ссылки, указывающие на файлы, залитые не автором темы, а так же просто найденные где-то ссылки с минимумом информации. Переоформление тем отсюда через форму Добавления релиза с перезаливкой ссылок крайне приветствуется.

 
Reply to this topicStart new topic
> Grease Razor - World Tour (2018), Thrash Metal/Groove
post Jan 3 2019, 08:06:20
Post #1

Group: Подсевший
Posts: 33
Releases: 0
On Forums: 9 years 11 months
Thanks: 1 time(s)
Italy


(IMG:https://metalarea.org/images/audiocovers/2019_Jan/acov_tid315252_thumb.jpg)

*Artist: Grease Razor
*Album: World Tour
*Year: 2018
*Genre: Thrash Metal/Groove
*Country: Canada (IMG:https://metalarea.org/forum/style_images/flags/Canada.png)
*Format: mp3@CBR320kbps
*Size: 80MB

Tracklist:
1 intro tape
2 Roger the enforcer
3 Piss loaded in italy
4 A large sea monster
5 Randy Travesty
6 Got the groove- Hello Mexico
7 Backstage
8 Typhoid Typhoon
9 Sunburn 97
10 Shanahan's
******************************
Total playing time: 34:04

Technical info
(IMG:https://metalarea.org/images/spectrogram/2019_Jan/6a4f007c8d31dcd32d316ec410ba24ed.png)
Input File: 02.Roger the Enforcer.mp3
Channels : 2
Sample Rate : 44100
Precision : 16-bit
Duration : 00:03:04.15 = 8121015 samples = 13811.2 CDDA sectors
File Size : 7.61M
Bit Rate : 331k
Sample Encoding: MPEG audio (layer I, II or III)
Comments :
Title=Roger the Enforcer
Artist=Grease Razor
Album=World Tour
Tracknumber=2/10
Year=2018
Genre=Heavy Metal
Discnumber=1/1



Register
Go to the top of the page
  Insert nick Quick quote
+Quote Post

Reply to this topicStart new topic
1 User(s) are reading this topic (1 Guests and 0 Anonymous Users)
0 Members:

 



- Lo-Fi Version Support form
Copyrights and abuse reports form
Time is now: 20th January 2019 - 07:34:03