Welcome Guest ( Log In | Register )

> Embrional - Evil Dead (2019), Death Metal
post Jan 3 2019, 23:41:27
Post #1

Аннигилятор пивА
Group Icon
Group: V.I.P
Posts: 52,360
Releases: 16550
From: Koenigsberg - TILZIT
On Forums: 14 years 6 months
Thanks: 366577 time(s)
Russian Federation


(IMG:https://metalarea.org/images/audiocovers/2019_Jan/acov_tid315316_thumb.jpg)

*Artist: Embrional
*Album: Evil Dead
*Year: 2019
*Genre: Death Metal
*Country: Poland (IMG:https://metalarea.org/forum/style_images/flags/Poland.png)
*Format: mp3@CBR320kbps
*Size: 81MB

Tracklist:
1. Ending up on the Gallow 04:50
2. Vileness... 04:50
3. Inhuman Lusts 04:06
4. Lord of Skulls 05:28
5. Day of Damnation 04:07
6. Endless Curse 04:12
7. Abomination 04:30
8. Damned by Dogmas 06:19
******************************
Total playing time: 38:26




Extended info
Armagog - Bass (2017-present) See also: A.H.P., F.A.M., Inferno, Throneum, ex-Arkona, ex-Call ov Unearthly, ex-Christ Agony, ex-Diabolicon, ex-Exhalation, ex-Mystes, ex-Taran, ex-Witchfuck, ex-Fetor, ex-Offence, ex-Enclave, ex-Vociferous, ex-Suffering
Skullripper - Guitars, Vocals (Azarath, Darzamat, ex-Hellish)
Młody - Drums (2017-present) See also: Amorphous, F.A.M., Squash Bowels, Xaoz, ex-Dissenter, ex-Bloodlust, ex-Christ Agony, ex-Dira Mortis, ex-Immemorial, ex-Parricide, ex-Union
Tomasz Nowok - Guitars (2017-present) See also: Devilpriest, Imperator, ex-Raging Death


Technical info
(IMG:https://metalarea.org/images/spectrogram/2019_Jan/873dbb6235841491dae692cdf498f203.png)
Input File: 03. Inhuman Lusts.mp3
Channels : 2
Sample Rate : 44100
Precision : 16-bit
Duration : 00:04:06.12 = 10853716 samples = 18458.7 CDDA sectors
File Size : 9.85M
Bit Rate : 320k
Sample Encoding: MPEG audio (layer I, II or III)
Comments :
Title=Inhuman Lusts
Artist=Embrional
Album=Evil Dead
Tracknumber=3
Year=2019



Register


Go to the top of the page
  Insert nick Quick quote
+Quote Post
 
Start new topic
Replies (1 - 7)
post Jan 4 2019, 11:36:56
Post #2

Аннигилятор пивА
Group Icon
Group: V.I.P
Posts: 52,360
Releases: 16550
From: Koenigsberg - TILZIT
On Forums: 14 years 6 months
Thanks: 366577 time(s)
Russian Federation


mirror
Register



Go to the top of the page
  Insert nick Quick quote
+Quote Post
post Jan 7 2019, 18:44:50
Post #3

Crush The Enemies
**************
Group: Металариец
Posts: 4,309
Releases: 0
From: Moscow
On Forums: 11 years 2 months
Thanks: 2722 time(s)
Russian Federation



Добротно-тяжёлый альбом выдали пшеки с Immolation уклоном - немного не достающим в жирррности саундом,но с отличной подачей вокала в лице Marcin Sienkiel-а (Skullripper) так же по совместительству вокалиста в Azarath! (IMG:style_emoticons/default/dwarf-1.gif)


Thanks:
Go to the top of the page
  Insert nick Quick quote
+Quote Post
post Jan 9 2019, 19:33:41
Post #4

melofags sniper
**************
Group: Металариец
Posts: 5,845
Releases: 0
On Forums: 12 years 8 months
Thanks: 5891 time(s)
Unknown


Quite interesting material. It lacks something maybe but definitely worth it. (IMG:style_emoticons/default/9.gif)
Go to the top of the page
  Insert nick Quick quote
+Quote Post
post Jan 20 2019, 21:32:28
Post #5

Empty Words
**************
Group: Металариец
Posts: 2,087
Releases: 13
From: Москва
On Forums: 11 years 3 months
Thanks: 2680 time(s)
Russian Federation


defamer666, как всегда, в масть расписал (IMG:style_emoticons/default/9.gif) Приятный альбом, несмотря на явное влияние классиков. Не самый худший пример для подражания (IMG:style_emoticons/default/smile3.gif) , причём исполнено хорошо.


Thanks:
Go to the top of the page
  Insert nick Quick quote
+Quote Post
post Oct 17 2020, 15:00:43
Post #6

aggresive exumator!
**********
Group: Металариец
Posts: 1,244
Releases: 0
On Forums: 9 years 2 months
Thanks: 43 time(s)
Unknown


rteupload please
Go to the top of the page
  Insert nick Quick quote
+Quote Post
post Oct 17 2020, 15:07:18
Post #7

Old School Metal
**************
Group: Металариец
Posts: 3,175
Releases: 0
From: г. Минск
On Forums: 11 years 8 months
Thanks: 7337 time(s)
Belarus



Embrional - Evil Dead (2019)


(IMG:https://d.radikal.ru/d20/2010/26/284e2a82c6da.jpg)


Format: mp3@320kbps (Lame 3.93.1)
Register

Lossless: FLAC (image+.cue+.log)
Register


Thanks:
Go to the top of the page
  Insert nick Quick quote
+Quote Post
post Oct 17 2020, 15:08:28
Post #8

Добрый
**************
Group: Металариец
Posts: 4,645
Releases: 0
On Forums: 2 years 4 months
Thanks: 10528 time(s)
Russian Federation


89 mb/320 kbps
Register


Go to the top of the page
  Insert nick Quick quote
+Quote Post

Reply to this topicStart new topic
1 User(s) are reading this topic (1 Guests and 0 Anonymous Users)
0 Members:

 



- Lo-Fi Version Support form
Copyrights and abuse reports form
Time is now: 30th November 2020 - 02:51:38