Welcome Guest ( Log In | Register )

> Правила / Rules

Тут только для чтения лежат низкобитрейтные (<192kbps) релизы, для которых есть аналоги в высокобитрейтных форумах.

Here goes (and stand in read only mode) low bitrate releases (<192kbps) which were already replaced by high bitrate releases in corresponding forums.

Причина закрытия (Daale 05-01-2019): Orthostat - Monolith Of Time (2019)
 
Closed TopicStart new topic
> Orthostat - Monolith Of Time (2019), Old School Death Metal
post Jan 4 2019, 16:40:57
Post #1

Мегаманьяк
***********
Group: Металариец
Posts: 1,527
Releases: 1309
From: Одесса
On Forums: 10 years 7 months
Thanks: 10361 time(s)
Ukraine


(IMG:http://metalarea.org/images/audiocovers/2019_Jan/acov_tid315351_thumb.jpg)

*Artist: Orthostat
*Album: Monolith Of Time
*Year: 2019
*Genre: Old School Death Metal
*Country: Brazil (IMG:http://metalarea.org/forum/style_images/flags/Brazil.png)
*Format: mp3@CBR128kbps (IMG:http://metalarea.org/images/bit_low.gif)
*Size: 47MB

Tracklist:
1. Ambaxtoi 07:12
2. Qetesh 05:13
3. Eridu 04:38
4. Incitatus 05:04
5. Baetylus 06:18
6. The Will of Ningirsu 04:50
7. Tezcatlipoca 09:17
8. Orthostat 06:09
******************************
Total playing time: 48:41



Extended info
Line - up:
Eduardo Rochinski - Bass (Necronation)
David Lago - Guitars, Vocals (Impiedoso)
Rudolph Hille - Guitars (ex-Impiedoso (live))

Guest/Session:
Thiago Nogueira - Drums (Ungodly, Scrupulous, Malefactor (live), ex-Headhunter D.C., ex-Mystifier, ex-Tharsis)

(IMG:https://f4.bcbits.com/img/0015180170_5.jpg)


Technical info
(IMG:http://metalarea.org/images/spectrogram/2019_Jan/6b63386c7af72c7a94a57a6241d72025.png)
Input File: 04 Orthostat - Incitatus.mp3
Channels : 2
Sample Rate : 44100
Precision : 16-bit
Duration : 00:05:04.15 = 13413147 samples = 22811.5 CDDA sectors
File Size : 4.87M
Bit Rate : 128k
Sample Encoding: MPEG audio (layer I, II or III)
Comments :
Title=Incitatus
Artist=Orthostat
Album=Monolith Of Time
Tracknumber=4
Year=2019
Genre=22



Register


Thanks:
(2) jollo, metala,
Go to the top of the page
  Insert nick Quick quote
+Quote Post

Причина закрытия (Daale 05-01-2019): Orthostat - Monolith Of Time (2019)
Closed TopicStart new topic
2 User(s) are reading this topic (2 Guests and 0 Anonymous Users)
0 Members:

 



- Lo-Fi Version Support form
Copyrights and abuse reports form
Time is now: 20th January 2019 - 09:00:58