Welcome Guest ( Log In | Register )

> Sinn - Deaf To My Cry [demo] (1987), Heavy/Speed Metal
post Jan 5 2019, 03:04:44
Post #1

Подвал
**************
Group: Металариец
Posts: 15,933
Releases: 9106
From: Far East (Khabarovsk)
On Forums: 12 years 2 months
Thanks: 102124 time(s)
Russian Federation


(IMG:http://metalarea.org/images/audiocovers/2019_Jan/acov_tid315368_thumb.jpg)

*Artist: Sinn
*Album: Deaf To My Cry [demo]
*Year: 1987
*Genre: Heavy/Speed Metal
*Country: United States (IMG:http://metalarea.org/forum/style_images/flags/United%20States.png)
*Format: mp3@CBR320kbps
*Size: 35MB

Tracklist:
1. Screams Of Silence 04:05
2. Tired Eyes 05:45
3. Ashes Don't Burn 06:44
******************************
Total playing time: 16:34

Extended info
Band from Yorktown Heights/Westchester, NY.


Technical info
(IMG:http://metalarea.org/images/spectrogram/2019_Jan/0dcca41d781dc801a0fe6e1dcb1285b6.png)
Input File: 01-Screams of Silence.mp3
Channels : 2
Sample Rate : 44100
Precision : 16-bit
Duration : 00:04:05.29 = 10817377 samples = 18396.9 CDDA sectors
File Size : 9.80M
Bit Rate : 320k
Sample Encoding: MPEG audio (layer I, II or III)
Comments :
Title=Screams of Silence
Artist=SINN
Album=Deaf To My Cry (demo)
Tracknumber=01
Year=1987
Genre=Heavy Metal



Register


Go to the top of the page
  Insert nick Quick quote
+Quote Post
 
Start new topic
Replies (1 - 1)
post Jan 5 2019, 09:29:32
Post #2

Dr.
**************
Group: Металариец
Posts: 5,331
Releases: 0
From: Primorye.ru
On Forums: 10 years 3 weeks
Thanks: 1107 time(s)
Russian Federation



... и ещё плюс три трека, предварительное исполнение при подготовке к выступлению (IMG:style_emoticons/default/t2017.gif)


Thanks:
Go to the top of the page
  Insert nick Quick quote
+Quote Post

Reply to this topicStart new topic
2 User(s) are reading this topic (2 Guests and 0 Anonymous Users)
0 Members:

 



- Lo-Fi Version Support form
Copyrights and abuse reports form
Time is now: 18th April 2021 - 01:31:14