Welcome Guest ( Log In | Register )

> Forum rules / Правила раздела

Here go releases which can't go to New releases forums due lack of information, stolen links or incorrect data and just founded in other sites links with minimum info. Reissue of this releases through Add release form with added/corrected data, info and own links highly welcomed.

Сюда уходят релизы, не пропущенные в основные релизные форумы по причинам отсутствия, недостаточности или неверности/некорректности сопровождающей информации, содержащие ссылки, указывающие на файлы, залитые не автором темы, а так же просто найденные где-то ссылки с минимумом информации. Переоформление тем отсюда через форму Добавления релиза с перезаливкой ссылок крайне приветствуется.

 
Reply to this topicStart new topic
> Ancient Bards - Impious Dystopia [single] (2018), Symphonic Power Metal (D5)
post Jan 5 2019, 17:16:16
Post #1

Мегаманьяк
***********
Group: Металариец
Posts: 1,758
Releases: 1527
From: Одесса
On Forums: 10 years 11 months
Thanks: 12595 time(s)
Ukraine


(IMG:http://metalarea.org/images/audiocovers/2019_Jan/acov_tid315398_thumb.jpg)

*Artist: Ancient Bards
*Album: Impious Dystopia [single]
*Year: 2018
*Genre: Symphonic Power Metal
*Country: Italy (IMG:http://metalarea.org/forum/style_images/flags/Italy.png)
*Format: mp3@CBR320kbps
*Size: 13MB

Tracklist:
1. Impious Dystopia 05:41
******************************
Total playing time: 5:41



Extended info
Line - up:

Martino Garattoni - Bass (Ne Obliviscaris, The Chronicles Project)
Daniele Mazza - Keyboards, Orchestrations
Claudio Pietronik - Guitars (ex-Black Wings)
Sara Squadrani - Vocals
Federico Gatti - Drums (Carnality, Wind Rose, ex-Nightland (live))
Simone Bertozzi - Guitars, Vocals (harsh) (Arcana 13, Empyrios, Undead, Mnemic, ex-Gory Blister, ex-The Modern Age Slavery)

(IMG:https://www.metal-archives.com/images/3/5/4/0/3540257762_photo.jpg?0721)


Technical info
(IMG:http://metalarea.org/images/spectrogram/2019_Jan/cdd2d66b90a38533d80c1035a07c90d4.png)
Input File: 01-ancient_bards-impious_dystopia-24dd6a2f.mp3
Channels : 2
Sample Rate : 44100
Precision : 16-bit
Duration : 00:05:40.97 = 15036865 samples = 25572.9 CDDA sectors
File Size : 13.6M
Bit Rate : 320k
Sample Encoding: MPEG audio (layer I, II or III)
Comments :
Title=Impious Dystopia
Artist=Ancient Bards
Album=Impious Dystopia (Single)
Tracknumber=1
Year=2018
Genre=Symphonic Power Metal



Register


Thanks:
(1) varlam4,
Go to the top of the page
  Insert nick Quick quote
+Quote Post

Reply to this topicStart new topic
2 User(s) are reading this topic (2 Guests and 0 Anonymous Users)
0 Members:

 



- Lo-Fi Version Support form
Copyrights and abuse reports form
Time is now: 26th May 2019 - 11:57:06