Welcome Guest ( Log In | Register )

> Epica - Epica Vs Attack On Titan Songs [ep] (2018), Symphonic/Power Metal
post Jan 6 2019, 12:40:08
Post #1

Аннигилятор пивА
Group Icon
Group: V.I.P
Posts: 52,360
Releases: 16550
From: Koenigsberg - TILZIT
On Forums: 14 years 1 day
Thanks: 365259 time(s)
Russian Federation


(IMG:https://metalarea.org/images/audiocovers/2019_Jan/acov_tid315432_thumb.jpg)

*Artist: Epica
*Album: Epica Vs Attack On Titan Songs [ep]
*Year: 2018
*Genre: Symphonic/Power Metal
*Country: Netherlands (IMG:https://metalarea.org/forum/style_images/flags/Netherlands.png)
*Format: mp3@VBR283kbps
*Size: 85MB

Tracklist:
1. Crimson Bow and Arrow 05:42
2. Wings of Freedom 05:34
3. If Inside These Walls Was a House 03:43
4. Dedicate Your Heart! 05:40
5. Crimson Bow and Arrow (instrumental) 05:42
6. Wings of Freedom (instrumental) 05:33
7. If Inside These Walls Was a House (instrumental) 03:43
8. Dedicate Your Heart! (instrumental) 05:40
******************************
Total playing time: 41:17



Extended info
Epica covers intro theme songs of the TV anime series "Attack on Titan [Shingeki no Kyojin]".
Dutch symphonic metal giants EPICA surprised their fans with a very special covers EP release entitled, EPICA VS. Attack On Titan. The release, which was only available in Japan, featured metal versions of the theme songs from the highly successful manga series with 70 Million copies in print turned worldwide aired anime "Attack On Titan". The band announced the EP will be available outside Japan on July 20th via Nuclear Blast Records.

Mark Jansen - Guitars (rhythm), Orchestrations, Vocals (harsh) (2003-present)
See also: Mayan, ex-Infernorama, ex-Sahara Dust, Universal Mind Project, ex-Carthagods, ex-After Forever, ex-ReVamp
Coen Janssen - Keyboards, Piano, Orchestrations (2003-present) See also: ex-Sahara Dust, ex-Kamelot
Simone Simons Vocals (2003-present) See also: ex-Sahara Dust, ex-Kamelot, ex-Mayan
Ariën van Weesenbeek - Drums, Vocals (grunts, spoken word) (2007-present)
See also: Mayan, ex-Down Till Dawn, ex-Edgecrusher, ex-Pandaemonium, ex-God Dethroned, ex-HDK, ex-Aborted, ex-Conspiracy, ex-Downslide
Isaac Delahaye Guitars (lead), Vocals (harsh) (2009-present) See also: ex-Down Till Dawn, ex-Edgecrusher, ex-Forcible, ex-God Dethroned, ex-Mayan, ex-Panopticum
Rob van der Loo - Bass (2012-present) See also: Freak Neil Inc., ex-Fifth, ex-Soulcatcher, ex-Form, Hangover Hero, Rob van der Loo, ex-Delain, ex-Mayan, ex-Exivious, ex-Hubi Meisel, ex-Sun Caged, ex-Triple 7


Technical info
(IMG:https://metalarea.org/images/spectrogram/2019_Jan/ed8324b7cce8ead8796d277b9a01f06f.png)
Input File: 03-epica-if_inside_these_walls_was_a_house.mp3
Channels : 2
Sample Rate : 44100
Precision : 16-bit
Duration : 00:03:43.19 = 9842679 samples = 16739.2 CDDA sectors
File Size : 7.38M
Bit Rate : 265k
Sample Encoding: MPEG audio (layer I, II or III)
Comments :
Title=If Inside These Walls Was A House
Artist=Epica
Album=Epica vs Attack On Titan Songs
Tracknumber=3/8
Year=2018-00-00
Genre=Metal



Register


Go to the top of the page
  Insert nick Quick quote
+Quote Post
 
Start new topic
Replies (1 - 9)
post Jan 6 2019, 13:31:21
Post #2

Dark Ambient Shoujo
**********
Group: Металариец
Posts: 1,260
Releases: 2
On Forums: 11 years 4 months
Thanks: 694 time(s)
Russian Federation


(IMG:https://i.ytimg.com/vi/MNIQy6Qo6Tk/hqdefault.jpg)
Go to the top of the page
  Insert nick Quick quote
+Quote Post
post Jan 6 2019, 13:34:34
Post #3

Аннигилятор пивА
Group Icon
Group: V.I.P
Posts: 52,360
Releases: 16550
From: Koenigsberg - TILZIT
On Forums: 14 years 1 day
Thanks: 365259 time(s)
Russian Federation


mirror
Register





Go to the top of the page
  Insert nick Quick quote
+Quote Post
post Jan 7 2019, 08:39:13
Post #4

Тридцать лет на борту "Тяжёлого" крейсера
**************
Group: Металариец
Posts: 2,278
Releases: 0
From: Питер
On Forums: 12 years 11 months
Thanks: 638 time(s)
Russian Federation


А что это за выброс?.. (IMG:style_emoticons/default/22.gif)
Go to the top of the page
  Insert nick Quick quote
+Quote Post
post Jan 7 2019, 09:08:38
Post #5

زرنيخ
**************
Group: Металариец
Posts: 2,092
Releases: 3
From: Санкт-Петербург
On Forums: 5 years 2 months
Thanks: 2586 time(s)
Russian Federation


Go to the top of the page
  Insert nick Quick quote
+Quote Post
post Jan 7 2019, 09:14:33
Post #6

член общества защитников попсы
*******
Group: Металариец
Posts: 778
Releases: 1
From: Полтава
On Forums: 9 years 8 months
Thanks: 449 time(s)
Ukraine


Надо же, как на эту мангу наяривает нынешнее поколение оказывацца.


Thanks:
(1) Ghostb,
Go to the top of the page
  Insert nick Quick quote
+Quote Post
post Jan 7 2019, 09:22:57
Post #7

Ледоруб
**************
Group: Металариец
Posts: 25,425
Releases: 0
From: Санкт-Петербург
On Forums: 10 years 8 months
Thanks: 8841 time(s)
Russian Federation


Очень вовремя.
Go to the top of the page
  Insert nick Quick quote
+Quote Post
post Jan 7 2019, 09:38:23
Post #8

Правь статус, ####!111
**************
Group: Металариец
Posts: 46,447
Releases: 717
On Forums: 10 years 11 months
Thanks: 38938 time(s)
Russian Federation


ЦИТАТА(Snowblind @ Jan 7 2019, 12:14:33) *
Надо же, как на эту мангу наяривает нынешнее поколение оказывацца.


Так это ж Япония, там такое модно. Сумневаюсь, шобы и в других странах массово стачивали стручки на все эти манги, это как если бы таиландскую диету повсеместно распространить.

Стафф же просто никакой. Это вам не Найтвиш с Аннет.


Thanks:
(1) Ghostb,
Go to the top of the page
  Insert nick Quick quote
+Quote Post
post Jan 7 2019, 20:21:28
Post #9
BAN
Banned till
Jun 1 2020, 09:51:43



Wondering if the hype around these kind of bands still exists since 2005... (IMG:style_emoticons/default/1488.gif)


Thanks:
(1) Ghostb,
Go to the top of the page
  Insert nick Quick quote
+Quote Post
post Jan 9 2019, 13:38:58
Post #10

hearer & reader
**************
Group: Металариец
Posts: 8,695
Releases: 140
From: Moscow
On Forums: 12 years 8 months
Thanks: 8718 time(s)
Russian Federation


Классная ипиха. Я в восторге.
Go to the top of the page
  Insert nick Quick quote
+Quote Post

Reply to this topicStart new topic
1 User(s) are reading this topic (1 Guests and 0 Anonymous Users)
0 Members:

 



- Lo-Fi Version Support form
Copyrights and abuse reports form
Time is now: 29th May 2020 - 04:59:39