Welcome Guest ( Log In | Register )

> Sidekut Slave & Oxta & Mysticité - Ihr Tod Ist Unsere Kunst [split] (2013), Black Metal | Black Metal | Black Metal
post Jan 9 2019, 15:39:21
Post #1

the faceless one
Group Icon
Group: S-moderation team
Posts: 9,326
Releases: 1924
On Forums: 11 years 9 months
Thanks: 114865 time(s)
Russian Federation


(IMG:http://metalarea.org/images/audiocovers/2019_Jan/acov_tid315629_thumb.jpg)

*Artist: Sidekut Slave & Oxta & Mysticité
*Album: Ihr Tod Ist Unsere Kunst [split]
*Year: 2013
*Genre: Black Metal | Black Metal | Black Metal
*Country: Russian Federation (IMG:http://metalarea.org/forum/style_images/flags/Russian%20Federation.png) | Russian Federation (IMG:http://metalarea.org/forum/style_images/flags/Russian%20Federation.png) | Russian Federation (IMG:http://metalarea.org/forum/style_images/flags/Russian%20Federation.png)
*Format: mp3@CBR320kbps
*Size: 61MB

Tracklist:
Sidekut Slave:
1. Rite I 01:40
2. Knife Equality 02:11
3. Rite II 01:52
4. Crime 01:42
5. Howard N. (Bone Awl Cover) 01:17
Oxta:
6. Tenebrae 04:12
7. The Crusade 04:46
Mysticité:
8. Eight Bottles Of Wine 01:46
9. Spring 01:12
10. Wood 01:17
11. Nigthshade 01:36
12. 18 02:25
******************************
Total playing time: 25:56



Extended info
The Throat ‎– KEEL022


Technical info
(IMG:http://metalarea.org/images/spectrogram/2019_Jan/8cb9f0b50cd016a6b12362eef52d9792.png)
Input File: 05 Howard N. (Bone Awl Cover).mp3
Channels : 2
Sample Rate : 44100
Precision : 16-bit
Duration : 00:01:17.48 = 3417000 samples = 5811.22 CDDA sectors
File Size : 3.10M
Bit Rate : 320k
Sample Encoding: MPEG audio (layer I, II or III)
Comments :
Title=Howard N. (Bone Awl Cover)
Artist=Sidekut Slave
Album=Ihr Tod Ist Unsere Kunst
Tracknumber=5
Year=2013
Genre=Black Metal



Register


Go to the top of the page
  Insert nick Quick quote
+Quote Post
 
Start new topic
Replies (1 - 2)
post Jan 9 2019, 19:03:20
Post #2

**************
Group: Металариец
Posts: 2,335
Releases: 14
From: Казань
On Forums: 10 years 8 months
Thanks: 3210 time(s)
Russian Federation


Прослушал сию архаичную ленту. Более всех по нутру - проект Oxta грязный, Xаsthуровскоподобный микс, тотально депрессивный, катакомбный бетон, неспешно ложащийся обугленными слоями на землю матушку - такой должен быть хребет депрессивно-атонального буйства. По сути, несмотря на панковские запилы двух других проектов, - линия все та же - бесцеремонный worship-Сарказм, замиксованный в lo-fi гаммах с отчаянными мотивами снующих болезней.
Город Герой Псков возрождает еще одно поколение Энтузиастов, а ведь Псков - далеко не последний проводник в мир крепкой андеграундной школы. И вообще. Мне все это дико напоминает Sklep - вот эта дикая упоротость, разнузданная и иррациональная...


Go to the top of the page
  Insert nick Quick quote
+Quote Post
post Jan 10 2019, 09:58:52
Post #3

antithesis
**************
Group: Металариец
Posts: 3,054
Releases: 33
From: VRN
On Forums: 10 years 2 weeks
Thanks: 1899 time(s)
Russian Federation


ЦИТАТА(sethurius @ Jan 9 2019, 23:03:20) *
проект Oxta грязный, Xаsthуровскоподобный микс, тотально депрессивный, катакомбный бетон

Такое надо брать. Благодарю за наводку.
Go to the top of the page
  Insert nick Quick quote
+Quote Post

Reply to this topicStart new topic
1 User(s) are reading this topic (1 Guests and 0 Anonymous Users)
0 Members:

 



- Lo-Fi Version Support form
Copyrights and abuse reports form
Time is now: 6th June 2020 - 06:07:23