Welcome Guest ( Log In | Register )

> Rising Murder - Denial Salvation (2018), Blackened Death Metal
post Jan 9 2019, 17:09:13
Post #1

Правь статус, ####!111
**************
Group: Металариец
Posts: 17,759
Releases: 12042
From: Г.Харьков
On Forums: 7 years 2 months
Thanks: 202166 time(s)
Unknown


(IMG:https://metalarea.org/images/audiocovers/2019_Jan/acov_tid315636_thumb.jpg)

*Artist: Rising Murder
*Album: Denial Salvation
*Year: 2018
*Genre: Blackened Death Metal
*Country: Colombia (IMG:https://metalarea.org/forum/style_images/flags/Colombia.png)
*Format: mp3@CBR320kbps
*Size: 78MB

Tracklist:
1. Make Them Die 01:57
2. Rising Murder 04:00
3. Curseland 02:48
4. False Messiah 03:27
5. Infected with Evil 03:27
6. Massive Exodus 04:01
7. Denial Salvation 03:49
8. Prayers of Death 02:35
9. In Eternal Curse 03:16
10. Graveyard Smell 04:21
******************************
Total playing time: 33:41




Extended info
Andrés Álvarez Unknown
See also: Inner Violence, Winds of Rain, ex-Blasphemer, ex-Sadistik Sodomizer, ex-Mantus
Danny Acevedo Unknown



Technical info
(IMG:https://metalarea.org/images/spectrogram/2019_Jan/1ed18b4a841f21617179ec921828134d.png)
Input File: 04 - False Messiah.mp3
Channels : 2
Sample Rate : 44100
Precision : 16-bit
Duration : 00:03:27.21 = 9138137 samples = 15541 CDDA sectors
File Size : 8.40M
Bit Rate : 324k
Sample Encoding: MPEG audio (layer I, II or III)
Comments :
Title=False Messiah
Artist=Rising Murder
Album=Denial Salvation
Tracknumber=4
Year=2018



Register


Go to the top of the page
  Insert nick Quick quote
+Quote Post
 
Start new topic
Replies (1 - 2)
post Jan 9 2019, 17:33:23
Post #2

Правь статус, ####!111
**************
Group: Металариец
Posts: 17,759
Releases: 12042
From: Г.Харьков
On Forums: 7 years 2 months
Thanks: 202166 time(s)
Unknown


Cloud Mail 320
Register


Thanks:
Go to the top of the page
  Insert nick Quick quote
+Quote Post
post Jan 11 2019, 16:05:22
Post #3

Правь статус, ####!111
**************
Group: Металариец
Posts: 2,497
Releases: 3
From: Dnipro
On Forums: 11 years 4 days
Thanks: 678 time(s)
Ukraine


А шо, по моему отлично в рамках стиля. Раз прогнал и еще захотелось. Желания удалить не возникло (IMG:style_emoticons/default/dooo.gif)
Go to the top of the page
  Insert nick Quick quote
+Quote Post

Reply to this topicStart new topic
1 User(s) are reading this topic (1 Guests and 0 Anonymous Users)
0 Members:

 



- Lo-Fi Version Support form
Copyrights and abuse reports form
Time is now: 18th July 2019 - 05:30:56