Welcome Guest ( Log In | Register )

> Corrections House - Writing History In Advance [live] (2014), Avant-Garde/Industrial/Post-Metal/Sludge (D4)
post Jan 10 2019, 17:53:04
Post #1

Маньяк
**********
Group: Металариец
Posts: 1,110
Releases: 71
On Forums: 5 years 5 months
Thanks: 1845 time(s)
Unknown


(IMG:http://metalarea.org/images/audiocovers/2019_Jan/acov_tid315704_thumb.jpg)

*Artist: Corrections House
*Album: Writing History In Advance [live]
*Year: 2014
*Genre: Avant-Garde/Industrial/Post-Metal/Sludge
*Country: United States (IMG:http://metalarea.org/forum/style_images/flags/United%20States.png)
*Format: mp3@CBR320kbps
*Size: 169MB

Tracklist:
01. Side A (Drapes Hung By Jesus) 16:30
02. Side B (Party Leg And Three Fingers / Bullets And Graves / Dirt Poor And Mentally Ill) 21:08
03. Side C (Hallows Of The Stream / Last City Zero / Serve Or Survive) 20:29
04. Side D (Hoax The System) 15:51
******************************
Total playing time: 1:13:58



Technical info
(IMG:http://metalarea.org/images/spectrogram/2019_Jan/8cca0ad8e138c7655a9b7477e108f147.png)
Input File: 04. Side D.mp3
Channels : 2
Sample Rate : 44100
Precision : 16-bit
Duration : 00:15:50.60 = 41921416 samples = 71294.9 CDDA sectors
File Size : 38.1M
Bit Rate : 321k
Sample Encoding: MPEG audio (layer I, II or III)
Comments :
Title=Side D (Hoax The System)
Artist=Corrections House
Album=Writing History In Advance
Tracknumber=04
Year=2014
Genre=Industrial



Register


Go to the top of the page
  Insert nick Quick quote
+Quote Post
 
Start new topic
Replies (1 - 1)
post Jan 10 2019, 21:21:52
Post #2

Маньяк
**********
Group: Металариец
Posts: 1,070
Releases: 0
On Forums: 7 years 10 months
Thanks: 459 time(s)
Unknown


Go to the top of the page
  Insert nick Quick quote
+Quote Post

Reply to this topicStart new topic
1 User(s) are reading this topic (1 Guests and 0 Anonymous Users)
0 Members:

 



- Lo-Fi Version Support form
Copyrights and abuse reports form
Time is now: 26th March 2019 - 01:31:19