Welcome Guest ( Log In | Register )

 
Reply to this topicStart new topic
> Various Artists - Det Kolde Nordland... Del 1 [compilation] (2004), Black Metal
post Jan 10 2019, 18:46:43
Post #1


Group Icon
Group: S-moderation team
Posts: 10,813
Releases: 1438
From: Zagreb
On Forums: 8 years 3 months
Thanks: 46653 time(s)
Croatia


(IMG:http://metalarea.org/images/audiocovers/2019_Jan/acov_tid315705_thumb.jpg)

*Artist: Various Artists
*Album: Det Kolde Nordland... Del 1 [compilation]
*Year: 2004
*Genre: Black Metal
*Country: Denmark (IMG:http://metalarea.org/forum/style_images/flags/Denmark.png)
*Format: mp3@VBR200kbps
*Size: 90MB

Tracklist:
01 Vanvid - Nattens Kalden 04:49
02 Blodarv - Soulcollector 04:24
03 Angantyr - Niddingdåd 06:17
04 Grimnismál - Mod Nord 04:31
05 Church Bizarre - Church Bizarre 02:01
06 Holmgang - Runens Advarsel 06:35
07 Sagntid - Leave Them In The Dark 02:17
08 Blackhorned - Alter Of Blasphemy 06:19
09 Zahrim - Ulvegrotten 05:04
10 Hellhaunted - Day Of Tentacles 04:34
11 Opus Obscurium - Fordærvet Altervin 06:22
12 Ravishing - Mummified Children 05:30
13 Vornoff - Tågens Klokkeklang 04:14
******************************
Total playing time: 1:02:57

Extended info


Technical info
(IMG:http://metalarea.org/images/spectrogram/2019_Jan/f866890430ece1500fa3d2aff7663113.png)
Input File: 10 Day Of Tentacles.mp3
Channels : 2
Sample Rate : 44100
Precision : 16-bit
Duration : 00:04:34.26 = 12094822 samples = 20569.4 CDDA sectors
File Size : 7.10M
Bit Rate : 207k
Sample Encoding: MPEG audio (layer I, II or III)
Comments :
Title=Day of Tentacles
Artist=Hellhaunted
Album=Det Kolde Nordland... Del 1
Tracknumber=10
Year=2004
Genre=Black Metal



Register


Go to the top of the page
  Insert nick Quick quote
+Quote Post

Reply to this topicStart new topic
1 User(s) are reading this topic (1 Guests and 0 Anonymous Users)
0 Members:

 



- Lo-Fi Version Support form
Copyrights and abuse reports form
Time is now: 18th June 2019 - 07:49:24