Welcome Guest ( Log In | Register )

> A Swarm Of The Sun - The Woods (2019), Post-Metal (D4)
post Jan 10 2019, 19:15:59
Post #1

Аннигилятор пивА
Group Icon
Group: V.I.P
Posts: 52,354
Releases: 16558
From: Koenigsberg - TILZIT
On Forums: 12 years 9 months
Thanks: 359692 time(s)
Russian Federation


(IMG:https://metalarea.org/images/audiocovers/2019_Jan/acov_tid315706_thumb.jpg)

*Artist: A Swarm Of The Sun
*Album: The Woods
*Year: 2019
*Genre: Post-Metal
*Country: Sweden (IMG:https://metalarea.org/forum/style_images/flags/Sweden.png)
*Format: mp3@CBR320kbps
*Size: 90MB

Tracklist:
1. Blackout 13:18
2. The Woods 13:19
3. An Heir to the Throne 12:09
******************************
Total playing time: 38:46

Preview 1

Extended info
Jakob Berglund - Vocals
Erik Nilsson - Guitars and piano
Anders Carlström - Bass
Karl Daniel Lidén - Drums
Minna Heimo - Pipe organ
Samuel Lundström - Viola


Technical info
(IMG:https://metalarea.org/images/spectrogram/2019_Jan/2dab705c9009dc4163bd568be548af3a.png)
Input File: 03 - An Heir to the Throne.mp3
Channels : 2
Sample Rate : 44100
Precision : 16-bit
Duration : 00:12:09.90 = 32188766 samples = 54742.8 CDDA sectors
File Size : 29.3M
Bit Rate : 321k
Sample Encoding: MPEG audio (layer I, II or III)
Comments :
Title=An Heir to the Throne
Artist=A Swarm of the Sun
Album=The Woods
Tracknumber=3
Year=2019
Genre=Post-Metal



Register


Go to the top of the page
  Insert nick Quick quote
+Quote Post
 
Start new topic
Replies (1 - 5)
post Jan 11 2019, 13:59:45
Post #2

Правь статус, ####!111
**************
Group: Металариец
Posts: 2,804
Releases: 745
On Forums: 8 years 5 months
Thanks: 9821 time(s)
Ukraine


Ambient/Post-Rock/Neoclassical, в неформат.
А так, работа хорошая, душевная.
Go to the top of the page
  Insert nick Quick quote
+Quote Post
post Jan 11 2019, 17:03:27
Post #3

Волк без яблока
**************
Group: Металариец
Posts: 13,244
Releases: 105
From: Санкт-Петербург
On Forums: 12 years 5 months
Thanks: 14926 time(s)
Russian Federation


Красиво, но мало, последний трек наполовину вообще spoken word.


Thanks:
Go to the top of the page
  Insert nick Quick quote
+Quote Post
post Mar 15 2019, 13:21:34
Post #4

Три Литра
***
Group: Завсегдатай
Posts: 252
Releases: 2
From: Belarus
On Forums: 10 years 2 weeks
Thanks: 88 time(s)
Belarus


Go to the top of the page
  Insert nick Quick quote
+Quote Post
post Mar 15 2019, 13:22:35
Post #5

Ледоруб
**************
Group: Металариец
Posts: 21,616
Releases: 0
From: Санкт-Петербург
On Forums: 9 years 6 months
Thanks: 6957 time(s)
Russian Federation


ЦИТАТА(KoreanGringo @ 11th January 2019 - 15:59:45) *
Ambient/Post-Rock/Neoclassical

Где ты раньше был?
Go to the top of the page
  Insert nick Quick quote
+Quote Post
post Mar 15 2019, 13:27:18
Post #6

Три Литра
***
Group: Завсегдатай
Posts: 252
Releases: 2
From: Belarus
On Forums: 10 years 2 weeks
Thanks: 88 time(s)
Belarus


Прекрасная музыка, чем-то Aoria напомнило, только без слов.
Go to the top of the page
  Insert nick Quick quote
+Quote Post

Reply to this topicStart new topic
1 User(s) are reading this topic (1 Guests and 0 Anonymous Users)
0 Members:

 



- Lo-Fi Version Support form
Copyrights and abuse reports form
Time is now: 20th March 2019 - 23:04:28