Welcome Guest ( Log In | Register )

> Forum rules / Правила раздела

Here go releases which can't go to New releases forums due lack of information, stolen links or incorrect data and just founded in other sites links with minimum info. Reissue of this releases through Add release form with added/corrected data, info and own links highly welcomed.

Сюда уходят релизы, не пропущенные в основные релизные форумы по причинам отсутствия, недостаточности или неверности/некорректности сопровождающей информации, содержащие ссылки, указывающие на файлы, залитые не автором темы, а так же просто найденные где-то ссылки с минимумом информации. Переоформление тем отсюда через форму Добавления релиза с перезаливкой ссылок крайне приветствуется.

 
Reply to this topicStart new topic
> Красные Звёзды - Свобода 2012 (2012), Alternative Rock
post Jan 10 2019, 19:18:13
Post #1

железный нечеловек
**********
Group: Металариец
Posts: 1,157
Releases: 3
From: Уфа
On Forums: 10 years 1 month
Thanks: 381 time(s)
Russian Federation


(IMG:http://metalarea.org/images/audiocovers/nocover.gif)

*Artist: Красные Звёзды
*Album: Свобода 2012
*Year: 2012
*Genre: Alternative Rock
*Country: Belarus (IMG:http://metalarea.org/forum/style_images/flags/Belarus.png)
*Format: mp3@CBR320kbps
*Size: 117MB

Tracklist:
1.Свобода 2012
2.Война
3.Загадка
4.Тут Нужен Я
5.Васильки
6.Баллада об Уходе в Рай (В.Высоцкий cover)
7.Олимпиада
8.ПЛД
9.Баррикадная
10.Пустота
11.Никто
12.Олимпиада (bonus)
13.Зорачка (bonus)
******************************
Total playing time: 49:17:01

Technical info
(IMG:http://metalarea.org/images/spectrogram/2019_Jan/6410ff5069ff562f9db621a967ce8e21.png)
Input File: 01 - Свобода 2012.mp3
Channels : 2
Sample Rate : 44100
Precision : 16-bit
Duration : 00:02:47.80 = 7399892 samples = 12584.9 CDDA sectors
File Size : 6.71M
Bit Rate : 320k
Sample Encoding: MPEG audio (layer I, II or III)
Comments :
Title=Ñâ”á”äà 2012
Artist=Êðàñíûå Çâ¸çäû
Album=Ñâ”á”äà 2012
Tracknumber=01
Year=2012
Genre=Дê



Register


Go to the top of the page
  Insert nick Quick quote
+Quote Post

Reply to this topicStart new topic
2 User(s) are reading this topic (2 Guests and 0 Anonymous Users)
0 Members:

 



- Lo-Fi Version Support form
Copyrights and abuse reports form
Time is now: 26th May 2019 - 13:13:13