Welcome Guest ( Log In | Register )

> Releases Upload / Добавление релизов

Добавить релиз тут / Click here to add release
Рекомендованные обменники / Recommended file shares

> Bloody Invasion - Zombie Society (2018), Death Metal
post Jan 10 2019, 19:43:21
Post #1

Аннигилятор пивА
Group Icon
Group: V.I.P
Posts: 51,572
Releases: 16203
From: Koenigsberg - TILZIT
On Forums: 12 years 7 months
Thanks: 352442 time(s)
Russian Federation


(IMG:https://metalarea.org/images/audiocovers/2019_Jan/acov_tid315709_thumb.jpg)

*Artist: Bloody Invasion
*Album: Zombie Society
*Year: 2018
*Genre: Death Metal
*Country: Germany (IMG:https://metalarea.org/forum/style_images/flags/Germany.png)
*Format: mp3@CBR320kbps
*Size: 94MB

Tracklist:
1. Zombie Society 05:40
2. Normal Course of Life 03:48
3. Bloodred Forest 06:37
4. We Need Extinction 04:30
5. Metropolis 05:29
6. Neckbreaker 04:38
7. Sickness 04:26
8. In Chains 05:24
******************************
Total playing time: 40:32




Extended info
Didi - Drums
Christian - Guitars (2012-present) (Succubus)
Marek - Guitars (2012-present) (Succubus, ex-Burning Steel)
Max - Vocals (2012-present)
Martin - Bass (2013-present)




Technical info
(IMG:https://metalarea.org/images/spectrogram/2019_Jan/36c5c8fc0c588e63e31fcc505c769320.png)
Input File: 02 - Normal Course Of Life.mp3
Channels : 2
Sample Rate : 44100
Precision : 16-bit
Duration : 00:03:49.00 = 10098988 samples = 17175.1 CDDA sectors
File Size : 9.31M
Bit Rate : 325k
Sample Encoding: MPEG audio (layer I, II or III)
Comments :
Title=Normal Course Of Life
Artist=Bloody Invasion
Album=Zombie Society
Tracknumber=2
Year=2018



Register


Go to the top of the page
  Insert nick Quick quote
+Quote Post
 
Start new topic
Replies (1 - 4)
post Jan 11 2019, 07:12:51
Post #2

MDM-Thrash Metal
**************
Group: Металариец
Posts: 7,420
Releases: 425
From: Одесса
On Forums: 11 years 5 months
Thanks: 14049 time(s)
Ukraine


- All 8 Tracks
К сожалению, но на БэндКампе ничего нет..... (IMG:style_emoticons/default/6.gif)


Thanks:
(1) artscald,
Go to the top of the page
  Insert nick Quick quote
+Quote Post
post Jan 11 2019, 08:32:17
Post #3

hearer & reader
**************
Group: Металариец
Posts: 7,320
Releases: 93
From: Moscow
On Forums: 11 years 4 months
Thanks: 6952 time(s)
Russian Federation


На SC мелкие шматки песен (IMG:style_emoticons/default/21.gif)
Хорошо, на ютьюбе всё выложили


Определенно, приблэковано. Замедления нудят. Мимо.


Thanks:
(1) Olethros,
Go to the top of the page
  Insert nick Quick quote
+Quote Post
post Jan 11 2019, 09:52:30
Post #4

Аннигилятор пивА
Group Icon
Group: V.I.P
Posts: 51,572
Releases: 16203
From: Koenigsberg - TILZIT
On Forums: 12 years 7 months
Thanks: 352442 time(s)
Russian Federation


то есть народ тупо доп инфу игнорит, где выложен клип и прочий ютуб (IMG:style_emoticons/default/crazy.gif)
про блэк, интересно в каком месте его тут слышно? олд скул дэт с "эпик" паган уклоном, можно сказать с викинг, в духе тех же амон амарт

mirror
Register


Thanks:
(1) Ostinato,
Go to the top of the page
  Insert nick Quick quote
+Quote Post
post Jan 11 2019, 15:48:53
Post #5

Сталин придёт за тобой...
***********
Group: Металариец
Posts: 1,634
Releases: 0
From: Беларусь, Минск
On Forums: 11 years 6 months
Thanks: 766 time(s)
Belarus


Совсем не впечатлило, слабо.
Go to the top of the page
  Insert nick Quick quote
+Quote Post

Reply to this topicStart new topic
1 User(s) are reading this topic (1 Guests and 0 Anonymous Users)
0 Members:

 



- Lo-Fi Version Support form
Copyrights and abuse reports form
Time is now: 22nd January 2019 - 22:04:25