Welcome Guest ( Log In | Register )

> Releases Upload / Добавление релизов

Добавить релиз тут / Click here to add release
Рекомендованные обменники / Recommended file shares

 
Reply to this topicStart new topic
> Violated Flesh - The Mutilated Face Of Terror [ep] (2018), Death/Thrash Metal
post Jan 11 2019, 01:05:58
Post #1

Правь статус, ####!111
**************
Group: Металариец
Posts: 15,734
Releases: 10687
From: Г.Харьков
On Forums: 6 years 8 months
Thanks: 177702 time(s)
Unknown


(IMG:https://metalarea.org/images/audiocovers/2019_Jan/acov_tid315713_thumb.jpg)

*Artist: Violated Flesh
*Album: The Mutilated Face Of Terror [ep]
*Year: 2018
*Genre: Death/Thrash Metal
*Country: United Kingdom (IMG:https://metalarea.org/forum/style_images/flags/United%20Kingdom.png)
*Format: mp3@CBR320kbps
*Size: 53MB

Tracklist:
1. Mutilated (Beyond Reform) 04:27
2. Begged for Mercu 04:22
3. Seduced by Violence 04:50
4. Trapped Inside 04:07
5. Face of Terror 04:33
******************************
Total playing time: 22:19




Extended info
The Deadly Guitars (2015-present)
See also: Warlord U.K., ex-Tormented Vision, ex-Spawned from Hate
The Fallen One Guitars (2015-present)
See also: ex-Spawned from Hate, ex-Warlord U.K.
Killmonger Vocals (2017-present)
See also: ex-Atonement (live), ex-Spawned from Hate (live)


Technical info
(IMG:https://metalarea.org/images/spectrogram/2019_Jan/2483b26fb3582d8299f9e9d1fb232038.png)
Input File: Violated Flesh - The Mutilated Face Of Terror - 03 Seduced By Violence.mp3
Channels : 2
Sample Rate : 44100
Precision : 16-bit
Duration : 00:04:50.63 = 12816695 samples = 21797.1 CDDA sectors
File Size : 11.9M
Bit Rate : 328k
Sample Encoding: MPEG audio (layer I, II or III)
Comments :
Title=Seduced By Violence
Artist=Violated Flesh
Album=The Mutilated Face Of Terror
Tracknumber=3
Year=2018



Register


Go to the top of the page
  Insert nick Quick quote
+Quote Post

Reply to this topicStart new topic
1 User(s) are reading this topic (1 Guests and 0 Anonymous Users)
0 Members:

 



- Lo-Fi Version Support form
Copyrights and abuse reports form
Time is now: 22nd January 2019 - 21:51:04