Welcome Guest ( Log In | Register )

> Karanlık & Ohol Yeg - We Despise The Crescent [split] (2018), Black Metal | Black Metal
post Jan 11 2019, 01:58:29
Post #1

Правь статус, ####!616
**************
Group: Металариец
Posts: 4,527
Releases: 3115
From: 55°35’N 38°08’E
On Forums: 10 years 8 months
Thanks: 58914 time(s)
Unknown


(IMG:http://metalarea.org/images/audiocovers/2019_Jan/acov_tid315714_thumb.jpg)

*Artist: Karanlık & Ohol Yeg
*Album: We Despise The Crescent [split]
*Year: 2018
*Genre: Black Metal | Black Metal
*Country: Turkey (IMG:http://metalarea.org/forum/style_images/flags/Turkey.png) | Turkey (IMG:http://metalarea.org/forum/style_images/flags/Turkey.png)
*Format: mp3@CBR320kbps
*Size: 48MB

Tracklist:
Karanlık:
1.Widowmaker 03:11
2.In League with Lucifer 03:20
3.Defile the Holy Lands 03:05
Ohol Yeg:
4.Burning Crescents 02:51
5.Orbiting the Infinite Void 04:57
6.Primal Demise 03:17
******************************
Total playing time: 20:41





Technical info
(IMG:http://metalarea.org/images/spectrogram/2019_Jan/3532e44a19fd144ec670f96ae5d69528.png)
Input File: 01 Karanlık - Widowmaker.mp3
Channels : 2
Sample Rate : 44100
Precision : 16-bit
Duration : 00:03:11.26 = 8434390 samples = 14344.2 CDDA sectors
File Size : 7.74M
Bit Rate : 324k
Sample Encoding: MPEG audio (layer I, II or III)
Comments :
Title=Widowmaker
Artist=KARANLIK
Album=We Despise the Crescent (Split)
Tracknumber=1
Year=2018
Genre=Black Metal



Register


Go to the top of the page
  Insert nick Quick quote
+Quote Post
 
Start new topic
Replies (1 - 1)
post Jan 12 2019, 17:45:13
Post #2

Русь Понад Усе!
**************
Group: Металариец
Posts: 4,156
Releases: 15
From: Украина
On Forums: 11 years 6 months
Thanks: 1603 time(s)
Ukraine


А мне понравилось, такой честный блечара (IMG:style_emoticons/default/bye.gif)
Go to the top of the page
  Insert nick Quick quote
+Quote Post

Reply to this topicStart new topic
1 User(s) are reading this topic (1 Guests and 0 Anonymous Users)
0 Members:

 



- Lo-Fi Version Support form
Copyrights and abuse reports form
Time is now: 26th March 2019 - 01:46:47