Welcome Guest ( Log In | Register )

> Releases Upload / Добавление релизов

Добавить релиз тут / Click here to add release
Рекомендованные обменники / Recommended file shares

 
Reply to this topicStart new topic
> Avetoria - Psychological Error (2019), Thrash/Groove Metal
post Jan 11 2019, 03:43:33
Post #1

Правь статус, ####!111
**************
Group: Металариец
Posts: 15,734
Releases: 10687
From: Г.Харьков
On Forums: 6 years 8 months
Thanks: 177692 time(s)
Unknown


(IMG:https://metalarea.org/images/audiocovers/2019_Jan/acov_tid315716_thumb.jpg)

*Artist: Avetoria
*Album: Psychological Error
*Year: 2019
*Genre: Thrash/Groove Metal
*Country: Sweden (IMG:https://metalarea.org/forum/style_images/flags/Sweden.png)
*Format: mp3@CBR320kbps
*Size: 100MB

Tracklist:
01. Star Signs
02. Loose the Binds
03. Tyrants
04. Absolute Law
05. Addictions
06. Crown
07. Conflict
08. Deny
******************************
Total playing time: 43:08



Extended info
Jonny Åsenius: Guitar.
David Nilsson: Guitar.
Jesper Lennartsson: Drums.
Joel Frank: Bass guitar.
Ted Carlström: Vocals


Technical info
(IMG:https://metalarea.org/images/spectrogram/2019_Jan/c604062ff0f205533b8e287a61009b11.png)
Input File: 03 - Tyrants.mp3
Channels : 2
Sample Rate : 44100
Precision : 16-bit
Duration : 00:00:00.33 = 14377 samples = 24.4507 CDDA sectors
File Size : 13.2M
Bit Rate : 324M
Sample Encoding: MPEG audio (layer I, II or III)
Comments :
Title=Tyrants
Artist=Avetoria
Album=Psychological Error
Tracknumber=3
Year=2019-19-20
Discnumber=1/1



Register


Go to the top of the page
  Insert nick Quick quote
+Quote Post

Reply to this topicStart new topic
1 User(s) are reading this topic (1 Guests and 0 Anonymous Users)
0 Members:

 



- Lo-Fi Version Support form
Copyrights and abuse reports form
Time is now: 22nd January 2019 - 21:33:33