Welcome Guest ( Log In | Register )

> Decomposed - Worm​-​eaten Divinities [ep] (2019), Brutal Death Metal (D)
post Jan 11 2019, 04:27:18
Post #1

Правь статус, ####!111
**************
Group: Металариец
Posts: 16,363
Releases: 11116
From: Г.Харьков
On Forums: 6 years 10 months
Thanks: 184988 time(s)
Unknown


(IMG:https://metalarea.org/images/audiocovers/2019_Jan/acov_tid315717_thumb.jpg)

*Artist: Decomposed
*Album: Worm​-​eaten Divinities [ep]
*Year: 2019
*Genre: Brutal Death Metal
*Country: Chile (IMG:https://metalarea.org/forum/style_images/flags/Chile.png)
*Format: mp3@CBR320kbps
*Size: 19MB

Tracklist:
1. Intro - Ascending To Decomposition 01:20
2. Tyrannized Faith 02:39
3. Worm-Eaten Divinities 01:51
4. Eternal Decimation 02:10
******************************
Total playing time: 8:00




Extended info
Gonzalo Gordillo : vocals
Felipe Olivares : Guitar
William Schwarzenberg : Bass
Nelson Jerez: Drums


Technical info
(IMG:https://metalarea.org/images/spectrogram/2019_Jan/ea1383b063038e25d51b8a3508c93959.png)
Input File: 02 Tyrannized Faith.mp3
Channels : 2
Sample Rate : 44100
Precision : 16-bit
Duration : 00:02:39.51 = 7034479 samples = 11963.4 CDDA sectors
File Size : 6.49M
Bit Rate : 325k
Sample Encoding: MPEG audio (layer I, II or III)
Comments :
Title=Tyrannized Faith
Artist=Decomposed
Album=Worm-Eaten Divinities
Tracknumber=2
Year=2019



Register


Go to the top of the page
  Insert nick Quick quote
+Quote Post
 
Start new topic
Replies (1 - 1)
post Jan 11 2019, 08:14:59
Post #2

hearer & reader
**************
Group: Металариец
Posts: 7,544
Releases: 98
From: Moscow
On Forums: 11 years 6 months
Thanks: 7124 time(s)
Russian Federation


Хорошо, но мало. В стиль просится Grindcore.
Go to the top of the page
  Insert nick Quick quote
+Quote Post

Reply to this topicStart new topic
1 User(s) are reading this topic (1 Guests and 0 Anonymous Users)
0 Members:

 



- Lo-Fi Version Support form
Copyrights and abuse reports form
Time is now: 26th March 2019 - 01:17:46