Welcome Guest ( Log In | Register )

 
Reply to this topicStart new topic
> Various Artists - Only Death Is Real Vol. 3 [compilation] (1998), Black/Death/Doom/Gothic Metal
post Jan 11 2019, 08:04:39
Post #1


Group Icon
Group: S-moderation team
Posts: 11,163
Releases: 1438
From: Zagreb
On Forums: 8 years 4 months
Thanks: 47784 time(s)
Croatia


(IMG:http://metalarea.org/images/audiocovers/2019_Jan/acov_tid315721_thumb.jpg)

*Artist: Various Artists
*Album: Only Death Is Real Vol. 3 [compilation]
*Year: 1998
*Genre: Black/Death/Doom/Gothic Metal
*Country: Many (IMG:http://metalarea.org/forum/style_images/flags/Many.png)
*Format: mp3@CBR192kbps
*Size: 91MB

Tracklist:
01Castigate - Ebon Sunset 05:00
02 Dispatched - Canis Lupus 05:55
03 Endless Falling - Repeat 03:06
04 Freund Hein - The Black Widow 05:19
05 Frozen Empire - Der Trieb Des Tieres 04:05
06 Geweih - Wolfssturm 04:28
07 In Abeyance - Turning To Dust 04:41
08 Legacy - Throne Of Fire 05:30
09 Legion Of Sadism - Die Kraft Satans 05:00
10 Magister - Der Weg Zum Christ 03:08
11 Mysterium - The Red-Eyed Wrath 05:25
12 Satanic Wizard - Das Sterben Der Jahreszeiten-Winterblut 06:43
13 Somnifère - Lost Creatures 05:07
14 The Prior's Diary - As The Angels Fall 04:28
******************************
Total playing time: 1:07:55

Extended info


Technical info
(IMG:http://metalarea.org/images/spectrogram/2019_Jan/43c8afd30c5fcc63ed54158a0545c1ed.png)
Input File: 04 - Freund Hein-The black widow.mp3
Channels : 2
Sample Rate : 44100
Precision : 16-bit
Duration : 00:05:19.65 = 14096521 samples = 23973.7 CDDA sectors
File Size : 7.68M
Bit Rate : 192k
Sample Encoding: MPEG audio (layer I, II or III)
Comments :
Title=The black widow
Artist=Freund Hein
Album=Only Death Is Real Vol. 3
Year=1999
Genre=138



Register


Go to the top of the page
  Insert nick Quick quote
+Quote Post

Reply to this topicStart new topic
1 User(s) are reading this topic (1 Guests and 0 Anonymous Users)
0 Members:

 



- Lo-Fi Version Support form
Copyrights and abuse reports form
Time is now: 20th July 2019 - 21:03:57