Welcome Guest ( Log In | Register )

> Forum rules / Правила раздела

Here go releases which can't go to New releases forums due lack of information, stolen links or incorrect data and just founded in other sites links with minimum info. Reissue of this releases through Add release form with added/corrected data, info and own links highly welcomed.

Сюда уходят релизы, не пропущенные в основные релизные форумы по причинам отсутствия, недостаточности или неверности/некорректности сопровождающей информации, содержащие ссылки, указывающие на файлы, залитые не автором темы, а так же просто найденные где-то ссылки с минимумом информации. Переоформление тем отсюда через форму Добавления релиза с перезаливкой ссылок крайне приветствуется.

> Misery Index - Rituals Of Power [single] (2019), Death Metal (D)
post Jan 11 2019, 10:22:35
Post #1
BAN
Banned till
Jun 15 2019, 17:50:12



(IMG:http://metalarea.org/images/audiocovers/2019_Jan/acov_tid315725_thumb.jpg)

*Artist: Misery Index
*Album: Rituals Of Power [single]
*Year: 2019
*Genre: Death Metal
*Country: United States (IMG:http://metalarea.org/forum/style_images/flags/United%20States.png)
*Format: mp3@CBR320kbps
*Size: 12MB

Tracklist:
1. Rituals of Power
******************************
Total playing time: 5:20

Technical info
(IMG:http://metalarea.org/images/spectrogram/2019_Jan/ebff55a539551861c0948006eb2c376c.png)
Input File: 01. Rituals of Power.mp3
Channels : 2
Sample Rate : 44100
Precision : 16-bit
Duration : 00:05:20.20 = 14120820 samples = 24015 CDDA sectors
File Size : 13.3M
Bit Rate : 331k
Sample Encoding: MPEG audio (layer I, II or III)
Comments :
Title=Rituals of Power
Artist=Misery Index
Album=Rituals of Power
Tracknumber=1/1
Year=2019
Discnumber=1/1



Register


Thanks:
(1) Aresson,
Go to the top of the page
  Insert nick Quick quote
+Quote Post
 
Start new topic
Replies (1 - 6)
post Jan 11 2019, 10:53:32
Post #2
BAN
Banned till
Jun 15 2019, 17:50:12



@320

Register
Go to the top of the page
  Insert nick Quick quote
+Quote Post
post Jan 11 2019, 11:50:45
Post #3

brutalcesar
**************
Group: Металариец
Posts: 17,743
Releases: 67
From: Рязань
On Forums: 10 years 4 months
Thanks: 9090 time(s)
Russian Federation



Go to the top of the page
  Insert nick Quick quote
+Quote Post
post Jan 15 2019, 21:43:11
Post #4
BAN
Banned till
Jun 15 2019, 17:50:12



Банально громыхают и орут конечно, нет индивидуальности но хоть звукан нарулили мощный.
Go to the top of the page
  Insert nick Quick quote
+Quote Post
post Feb 5 2019, 21:24:52
Post #5
BAN
Banned till
Jun 15 2019, 17:50:12



Еще кучку пахучево

Go to the top of the page
  Insert nick Quick quote
+Quote Post
post Feb 5 2019, 21:28:51
Post #6

Правь статус, ####!111
**************
Group: Металариец
Posts: 3,565
Releases: 0
From: Одесса
On Forums: 11 years 2 months
Thanks: 1660 time(s)
Unknown


(IMG:style_emoticons/default/14.gif)
Go to the top of the page
  Insert nick Quick quote
+Quote Post
post Feb 5 2019, 21:30:52
Post #7
BAN
Banned till
Jun 15 2019, 17:50:12



Agree this is ordinary and boring. I yawn like cachalot (IMG:style_emoticons/default/14.gif)


Thanks:
Go to the top of the page
  Insert nick Quick quote
+Quote Post

Reply to this topicStart new topic
2 User(s) are reading this topic (2 Guests and 0 Anonymous Users)
0 Members:

 



- Lo-Fi Version Support form
Copyrights and abuse reports form
Time is now: 22nd May 2019 - 12:26:52