Welcome Guest ( Log In | Register )

> Forum rules / Правила раздела

Here go releases which can't go to New releases forums due lack of information, stolen links or incorrect data and just founded in other sites links with minimum info. Reissue of this releases through Add release form with added/corrected data, info and own links highly welcomed.

Сюда уходят релизы, не пропущенные в основные релизные форумы по причинам отсутствия, недостаточности или неверности/некорректности сопровождающей информации, содержащие ссылки, указывающие на файлы, залитые не автором темы, а так же просто найденные где-то ссылки с минимумом информации. Переоформление тем отсюда через форму Добавления релиза с перезаливкой ссылок крайне приветствуется.

> Queensrÿche - Dark Reverie [single] (2019), Progressive Metal
post Jan 11 2019, 10:30:58
Post #1
BAN
Banned till
Jun 15 2019, 17:50:12



(IMG:http://metalarea.org/images/audiocovers/2019_Jan/acov_tid315726_thumb.jpg)

*Artist: Queensrÿche
*Album: Dark Reverie [single]
*Year: 2019
*Genre: Progressive Metal
*Country: United States (IMG:http://metalarea.org/forum/style_images/flags/United%20States.png)
*Format: mp3@CBR320kbps
*Size: 10MB

Tracklist:
1. Dark Reverie
******************************
Total playing time: 4:23

Technical info
(IMG:http://metalarea.org/images/spectrogram/2019_Jan/1f5c0ef0789ef1ae5cc00b6f00eb6c89.png)
Input File: 01. Dark Reverie.mp3
Channels : 2
Sample Rate : 44100
Precision : 16-bit
Duration : 00:04:23.43 = 11617395 samples = 19757.5 CDDA sectors
File Size : 10.9M
Bit Rate : 330k
Sample Encoding: MPEG audio (layer I, II or III)
Comments :
Title=Dark Reverie
Artist=Queensrÿche
Album=Dark Reverie
Tracknumber=1/1
Year=2019
Discnumber=1/1



Register


This post has been edited by Borderline1991: Jan 11 2019, 11:54:08


Thanks:
Go to the top of the page
  Insert nick Quick quote
+Quote Post
 
Start new topic
Replies (1 - 2)
post Jan 11 2019, 11:02:01
Post #2
BAN
Banned till
Jun 15 2019, 17:50:12



@320

Register
Go to the top of the page
  Insert nick Quick quote
+Quote Post
post Jan 11 2019, 11:45:08
Post #3

21st Century Schizoid Man
**************
Group: Металариец
Posts: 5,770
Releases: 68
From: Moscow
On Forums: 11 years 2 weeks
Thanks: 4434 time(s)
Russian Federation


Нормас, в целом. До классики, конечно, пока ещё далеко, но подход хороший.
Go to the top of the page
  Insert nick Quick quote
+Quote Post

Reply to this topicStart new topic
2 User(s) are reading this topic (2 Guests and 0 Anonymous Users)
0 Members:

 



- Lo-Fi Version Support form
Copyrights and abuse reports form
Time is now: 22nd May 2019 - 11:45:18