Welcome Guest ( Log In | Register )

> Releases Upload / Добавление релизов

Добавить релиз тут / Click here to add release
Рекомендованные обменники / Recommended file shares

> Koma - Through Blackened Veils (2019), Sludge/Doom Metal
post Jan 11 2019, 10:32:31
Post #1

Аннигилятор пивА
Group Icon
Group: V.I.P
Posts: 51,494
Releases: 16175
From: Koenigsberg - TILZIT
On Forums: 12 years 7 months
Thanks: 351774 time(s)
Russian Federation


(IMG:https://metalarea.org/images/audiocovers/2019_Jan/acov_tid315727_thumb.jpg)

*Artist: Koma
*Album: Through Blackened Veils
*Year: 2019
*Genre: Sludge/Doom Metal
*Country: Canada (IMG:https://metalarea.org/forum/style_images/flags/Canada.png)
*Format: mp3@CBR320kbps
*Size: 82MB

Tracklist:
1. In Requiem 06:21
2. Tempest Fury 08:33
3. Rendered Blind 05:57
4. Misery Funnel 07:42
5. And Now You Suffer 07:08
******************************
Total playing time: 35:41




Extended info
Aron Shute - Bass, Vocals (2015-present)
Rob Poirier - Drums (2015-present)
Kevin Grindon - Guitars, Vocals (2015-present) See also: Burning Ghats, Write Off, ex-Batoche, ex-Born of Ashes
Greg - Guitars, Vocals (2015-present)


Technical info
(IMG:https://metalarea.org/images/spectrogram/2019_Jan/0d78946cfd2627416fad60c08120cdd0.png)
Input File: 01 In Requiem.mp3
Channels : 2
Sample Rate : 44100
Precision : 16-bit
Duration : 00:06:21.91 = 16842011 samples = 28642.9 CDDA sectors
File Size : 15.3M
Bit Rate : 320k
Sample Encoding: MPEG audio (layer I, II or III)
Comments :
Title=In Requiem
Artist=Koma
Album=Through Blackened Veils
Tracknumber=1
Year=2019
Genre=Metal



Register


Go to the top of the page
  Insert nick Quick quote
+Quote Post
 
Start new topic
Replies (1 - 2)
post Jan 11 2019, 11:21:12
Post #2

Правь статус, ####!111
**************
Group: Металариец
Posts: 36,460
Releases: 537
On Forums: 9 years 7 months
Thanks: 28212 time(s)
Russian Federation


Олежыщ, спасибище!

По превью неплохо, хоть и не без сторонних примесей.

В жанре надо было обязательно блэкенед указать.
Go to the top of the page
  Insert nick Quick quote
+Quote Post
post Jan 16 2019, 22:35:25
Post #3

Правь статус, ####!111
**************
Group: Металариец
Posts: 36,460
Releases: 537
On Forums: 9 years 7 months
Thanks: 28212 time(s)
Russian Federation


Второй топовый релиз года. Все, как и надо. Даже еще более одержимо чем первый релиз. Отходосы и "невероятно уродливые фрукты". Не совсем ясно для чего надо было перезаписывать Misery Funnel, но и хрен то с ней.

Побольше бы таких групп. (IMG:style_emoticons/default/pray.gif)
Go to the top of the page
  Insert nick Quick quote
+Quote Post

Reply to this topicStart new topic
2 User(s) are reading this topic (2 Guests and 0 Anonymous Users)
0 Members:

 



- Lo-Fi Version Support form
Copyrights and abuse reports form
Time is now: 20th January 2019 - 01:29:19