Welcome Guest ( Log In | Register )

> Forum rules / Правила раздела

Here go releases which can't go to New releases forums due lack of information, stolen links or incorrect data and just founded in other sites links with minimum info. Reissue of this releases through Add release form with added/corrected data, info and own links highly welcomed.

Сюда уходят релизы, не пропущенные в основные релизные форумы по причинам отсутствия, недостаточности или неверности/некорректности сопровождающей информации, содержащие ссылки, указывающие на файлы, залитые не автором темы, а так же просто найденные где-то ссылки с минимумом информации. Переоформление тем отсюда через форму Добавления релиза с перезаливкой ссылок крайне приветствуется.

> Candlemass - Astorolus - The Great Octopus [single] (2019), Epic Doom Metal (D)
post Jan 11 2019, 10:37:28
Post #1

Правь статус, ####!111
**************
Group: Металариец
Posts: 36,460
Releases: 537
On Forums: 9 years 7 months
Thanks: 28212 time(s)
Russian Federation


(IMG:http://metalarea.org/images/audiocovers/2019_Jan/acov_tid315728.jpg)

*Artist: Candlemass
*Album: Astorolus - The Great Octopus [single]
*Year: 2019
*Genre: Epic Doom Metal
*Country: Sweden (IMG:http://metalarea.org/forum/style_images/flags/Sweden.png)
*Format: mp3@CBR320kbps
*Size: 15MB

Tracklist:
1. Astorolus - the Great Octopus
******************************
Total playing time: 6:42

Technical info
(IMG:http://metalarea.org/images/spectrogram/2019_Jan/dcd5b446a1408c10dc373e3de6346756.png)
Input File: 01. Astorolus - the Great Octopus.mp3
Channels : 2
Sample Rate : 44100
Precision : 16-bit
Duration : 00:06:42.60 = 17754440 samples = 30194.6 CDDA sectors
File Size : 16.4M
Bit Rate : 327k
Sample Encoding: MPEG audio (layer I, II or III)
Comments :
Title=Astorolus - the Great Octopus
Artist=Candlemass
Album=Astorolus - the Great Octopus
Tracknumber=1/1
Year=2019
Discnumber=1/1



Register


Thanks:
(1) Aresson,
Go to the top of the page
  Insert nick Quick quote
+Quote Post
 
Start new topic
Replies (1 - 3)
post Jan 11 2019, 11:04:55
Post #2

Правь статус, ####!111
**************
Group: Металариец
Posts: 36,460
Releases: 537
On Forums: 9 years 7 months
Thanks: 28212 time(s)
Russian Federation


@320

Register


Второй трэк с Ланквистом с грядущего альбома)
Go to the top of the page
  Insert nick Quick quote
+Quote Post
post Jan 11 2019, 11:25:40
Post #3

Попсовик от брутала
**************
Group: Металариец
Posts: 6,474
Releases: 62
From: Минск
On Forums: 10 years 1 month
Thanks: 5371 time(s)
Belarus


И первый с Айомми.
Go to the top of the page
  Insert nick Quick quote
+Quote Post
post Jan 11 2019, 12:59:58
Post #4

Правь статус, ####!111
**************
Group: Металариец
Posts: 36,460
Releases: 537
On Forums: 9 years 7 months
Thanks: 28212 time(s)
Russian Federation


Да. Просто Кэндлы.

До уровня шедевральных 1986 и 1988 как орангутангу до Луны.
Go to the top of the page
  Insert nick Quick quote
+Quote Post

Reply to this topicStart new topic
2 User(s) are reading this topic (2 Guests and 0 Anonymous Users)
0 Members:

 



- Lo-Fi Version Support form
Copyrights and abuse reports form
Time is now: 20th January 2019 - 08:44:00