Welcome Guest ( Log In | Register )

> Forum rules / Правила раздела

Here go releases which can't go to New releases forums due lack of information, stolen links or incorrect data and just founded in other sites links with minimum info. Reissue of this releases through Add release form with added/corrected data, info and own links highly welcomed.

Сюда уходят релизы, не пропущенные в основные релизные форумы по причинам отсутствия, недостаточности или неверности/некорректности сопровождающей информации, содержащие ссылки, указывающие на файлы, залитые не автором темы, а так же просто найденные где-то ссылки с минимумом информации. Переоформление тем отсюда через форму Добавления релиза с перезаливкой ссылок крайне приветствуется.

> Kaunis Kuolematon - Yön Tunteina [single] (2019), Melodic Doom/Death Metal (D5)
post Jan 11 2019, 10:50:58
Post #1

Правь статус, ####!111
**************
Group: Металариец
Posts: 36,460
Releases: 537
On Forums: 9 years 7 months
Thanks: 28212 time(s)
Russian Federation


(IMG:http://metalarea.org/images/audiocovers/2019_Jan/acov_tid315730_thumb.jpg)

*Artist: Kaunis Kuolematon
*Album: Yön Tunteina [single]
*Year: 2019
*Genre: Melodic Doom/Death Metal
*Country: Finland (IMG:http://metalarea.org/forum/style_images/flags/Finland.png)
*Format: mp3@CBR320kbps
*Size: 12MB

Tracklist:
1. Yön Tunteina
******************************
Total playing time: 5:16

Technical info
(IMG:http://metalarea.org/images/spectrogram/2019_Jan/687f4c176467a2c9675e095393b54298.png)
Input File: 01. Yön tunteina.mp3
Channels : 2
Sample Rate : 44100
Precision : 16-bit
Duration : 00:05:16.41 = 13953769 samples = 23730.9 CDDA sectors
File Size : 13.1M
Bit Rate : 331k
Sample Encoding: MPEG audio (layer I, II or III)
Comments :
Title=Yön tunteina
Artist=Kaunis Kuolematon
Album=Yön tunteina
Tracknumber=1/1
Year=2019
Discnumber=1/1



Register
Go to the top of the page
  Insert nick Quick quote
+Quote Post
 
Start new topic
Replies (1 - 1)
post Jan 11 2019, 11:31:17
Post #2

Правь статус, ####!111
**************
Group: Металариец
Posts: 36,460
Releases: 537
On Forums: 9 years 7 months
Thanks: 28212 time(s)
Russian Federation


@320

Register
Go to the top of the page
  Insert nick Quick quote
+Quote Post

Reply to this topicStart new topic
2 User(s) are reading this topic (2 Guests and 0 Anonymous Users)
0 Members:

 



- Lo-Fi Version Support form
Copyrights and abuse reports form
Time is now: 20th January 2019 - 08:17:08