Welcome Guest ( Log In | Register )

 
Reply to this topicStart new topic
> Various Artists - A Tribute To Old School Spirit Part I [compilation] (2004), Black Metal
post Jan 11 2019, 10:53:07
Post #1


Group Icon
Group: S-moderation team
Posts: 11,158
Releases: 1438
From: Zagreb
On Forums: 8 years 4 months
Thanks: 47737 time(s)
Croatia


(IMG:http://metalarea.org/images/audiocovers/2019_Jan/acov_tid315731_thumb.jpg)

*Artist: Various Artists
*Album: A Tribute To Old School Spirit Part I [compilation]
*Year: 2004
*Genre: Black Metal
*Country: Many (IMG:http://metalarea.org/forum/style_images/flags/Many.png)
*Format: mp3@VBR218kbps
*Size: 112MB

Tracklist:
01 Gorgon - Countess Bathory (Venom) 03:20
02 Animus Herilis - Evil (Mercyful Fate) 04:29
03 Horrid Flesh - From The Pagan Vastland (Behemoth) 02:45
04 Krazumpath - Deathcrush (Mayhem) 02:48
05 Osirion - Materialized In Stone (Marduk) 04:33
06 Zarach' Baal' Tharagh' - War (Bathory) 02:30
07 Inocculta - In The Mist By The Hill (Satyricon) 08:06
08 Reverence - Stoneland (Shining) 08:10
09 Nihilistic Kaos - Transylvanian Hunger (Darkthrone) 04:24
10 Nehëmah - A Call From The Grave (Bathory) 04:47
11 A.N.A.E.L. - When Night Falls (Burzum) 03:37
12 Denial Of God - Terror (Death SS) 06:54
13 Grim Landscape - Evil Church (Enthroned) 04:31
14 Balrog - Spell Of Destruction (Burzum) 05:05
15 Antechristus - Von (Von) 02:29
16 Horna - Sadomatic Rites (Beherit) 04:30
******************************
Total playing time: 1:12:58

Extended info


Technical info
(IMG:http://metalarea.org/images/spectrogram/2019_Jan/96a9524705719a4d101bc5bf5d11b56a.png)
Input File: 01 Countess Bathory (Venom).mp3
Channels : 2
Sample Rate : 44100
Precision : 16-bit
Duration : 00:03:20.57 = 8845049 samples = 15042.6 CDDA sectors
File Size : 4.70M
Bit Rate : 188k
Sample Encoding: MPEG audio (layer I, II or III)
Comments :
Title=Countess Bathory (Venom)
Artist=Gorgon
Album=A Tribute To Old School Spirit Part I
Tracknumber=1
Year=2004
Genre=Black Metal



Register


Go to the top of the page
  Insert nick Quick quote
+Quote Post

Reply to this topicStart new topic
1 User(s) are reading this topic (1 Guests and 0 Anonymous Users)
0 Members:

 



- Lo-Fi Version Support form
Copyrights and abuse reports form
Time is now: 18th July 2019 - 20:52:03