Welcome Guest ( Log In | Register )

> Releases Upload / Добавление релизов

Добавить релиз тут / Click here to add release
Рекомендованные обменники / Recommended file shares

 
Reply to this topicStart new topic
> The Ephemeral - Komorebi [ep] (2019), Modern Extreme Progressive Metal
post Jan 11 2019, 10:58:35
Post #1

Аннигилятор пивА
Group Icon
Group: V.I.P
Posts: 51,572
Releases: 16203
From: Koenigsberg - TILZIT
On Forums: 12 years 7 months
Thanks: 352437 time(s)
Russian Federation


(IMG:https://metalarea.org/images/audiocovers/2019_Jan/acov_tid315732_thumb.jpg)

*Artist: The Ephemeral
*Album: Komorebi [ep]
*Year: 2019
*Genre: Modern Extreme Progressive Metal
*Country: United States (IMG:https://metalarea.org/forum/style_images/flags/United%20States.png)
*Format: mp3@CBR320kbps
*Size: 55MB

Tracklist:
01. Mono No Aware
02. Qualia
03. Sunrise
04. Pando
05. Black Licorice
06. Lilac
******************************
Total playing time: 22:16



Extended info
Nick Fraga - Vocals
Kieran Lynch - Guitar
Darin Senyk - Guitar/Vocals
Blake Devoe - Bass




Technical info
(IMG:https://metalarea.org/images/spectrogram/2019_Jan/9fbdd203288b45445b93343fa90dec99.png)
Input File: 03 Sunrise.mp3
Channels : 2
Sample Rate : 44100
Precision : 16-bit
Duration : 00:03:17.71 = 8718791 samples = 14827.9 CDDA sectors
File Size : 8.68M
Bit Rate : 351k
Sample Encoding: MPEG audio (layer I, II or III)
Comments :
Title=Sunrise
Artist=The Ephemeral
Album=Komorebi
Tracknumber=3/6
Year=2019
Genre=Metal
Discnumber=1/1



Register


Thanks:
Go to the top of the page
  Insert nick Quick quote
+Quote Post

Reply to this topicStart new topic
1 User(s) are reading this topic (1 Guests and 0 Anonymous Users)
0 Members:

 



- Lo-Fi Version Support form
Copyrights and abuse reports form
Time is now: 22nd January 2019 - 21:34:31