Welcome Guest ( Log In | Register )

> Releases Upload / Добавление релизов

Добавить релиз тут / Click here to add release
Рекомендованные обменники / Recommended file shares

 
Reply to this topicStart new topic
> Gorse Cairn - Isara [ep] (2018), Black/Doom Metal
post Jan 11 2019, 11:12:07
Post #1

Аннигилятор пивА
Group Icon
Group: V.I.P
Posts: 51,494
Releases: 16175
From: Koenigsberg - TILZIT
On Forums: 12 years 7 months
Thanks: 351776 time(s)
Russian Federation


(IMG:https://metalarea.org/images/audiocovers/2019_Jan/acov_tid315734_thumb.jpg)

*Artist: Gorse Cairn
*Album: Isara [ep]
*Year: 2018
*Genre: Black/Doom Metal
*Country: United Kingdom (IMG:https://metalarea.org/forum/style_images/flags/United%20Kingdom.png)
*Format: mp3@CBR320kbps
*Size: 41MB

Tracklist:
01. As the Wind Carves the Mountain
02. Hail the Old North
03. All That Has Come to Pass
******************************
Total playing time: 17:22




Technical info
(IMG:https://metalarea.org/images/spectrogram/2019_Jan/94284e2efed97f56e1800ec7d60613ad.png)
Input File: GORSE CAIRN - ISARA - 02 Hail the old north.mp3
Channels : 2
Sample Rate : 44100
Precision : 16-bit
Duration : 00:04:44.91 = 12564399 samples = 21368 CDDA sectors
File Size : 11.5M
Bit Rate : 323k
Sample Encoding: MPEG audio (layer I, II or III)
Comments :
Title=Hail the old north
Artist=GORSE CAIRN
Album=ISARA
Tracknumber=2
Year=2018



Register


Go to the top of the page
  Insert nick Quick quote
+Quote Post

Reply to this topicStart new topic
2 User(s) are reading this topic (2 Guests and 0 Anonymous Users)
0 Members:

 



- Lo-Fi Version Support form
Copyrights and abuse reports form
Time is now: 20th January 2019 - 02:29:17