Welcome Guest ( Log In | Register )

> Morticula Rex - Grotesque Glory (2018), Old School Death/Doom Metal
post Jan 11 2019, 11:50:46
Post #1

Аннигилятор пивА
Group Icon
Group: V.I.P
Posts: 52,356
Releases: 16556
From: Koenigsberg - TILZIT
On Forums: 13 years 1 month
Thanks: 361412 time(s)
Russian Federation


(IMG:https://metalarea.org/images/audiocovers/2019_Jan/acov_tid315735_thumb.jpg)

*Artist: Morticula Rex
*Album: Grotesque Glory
*Year: 2018
*Genre: Old School Death/Doom Metal
*Country: Italy (IMG:https://metalarea.org/forum/style_images/flags/Italy.png)
*Format: mp3@CBR320kbps
*Size: 67MB

Tracklist:
1. Death Is Certain 06:21
2. The Carnage 04:34
3. Grotesque Glory 04:24
4. Feasting for Mayhem 04:48
5. Deliver Us to Evil 03:49
6. Vastness of the Continuum 05:03
******************************
Total playing time: 28:59




Extended info


Technical info
(IMG:https://metalarea.org/images/spectrogram/2019_Jan/5f7d095326db03b8297d3848c8b0a51c.png)
Input File: 02. The Carnage.mp3
Channels : 2
Sample Rate : 44100
Precision : 16-bit
Duration : 00:04:34.82 = 12119694 samples = 20611.7 CDDA sectors
File Size : 11.2M
Bit Rate : 325k
Sample Encoding: MPEG audio (layer I, II or III)
Comments :
Title=The Carnage
Artist=Morticula Rex
Album=Grotesque Glory
Tracknumber=2
Year=2018



Register


Go to the top of the page
  Insert nick Quick quote
+Quote Post
 
Start new topic
Replies (1 - 3)
post Jan 11 2019, 13:32:35
Post #2

Правь статус, ####!111
**************
Group: Металариец
Posts: 2,499
Releases: 3
From: Dnipro
On Forums: 11 years 5 days
Thanks: 679 time(s)
Ukraine


Достаточно стандартно и обыденно, хотя и не плохо, с примесью олдскула.
Как по мне то лучшая песня это Grotesque Glory
Go to the top of the page
  Insert nick Quick quote
+Quote Post
post Jan 11 2019, 14:22:16
Post #3

Шесть Литров
******
Group: Металариец
Posts: 532
Releases: 5
From: Ивантеевка, Московская область
On Forums: 11 years 7 months
Thanks: 170 time(s)
Russian Federation


Согласен с isvili, альбом приятен, но на пару раз. И по лучшей песенке тоже соглашусь. Ну и вокалист мне понравился.


Thanks:
(1) isvili,
Go to the top of the page
  Insert nick Quick quote
+Quote Post
post Jan 12 2019, 15:40:20
Post #4

Два Литра
**
Group: Завсегдатай
Posts: 113
Releases: 0
On Forums: 12 years 10 months
Thanks: 14 time(s)
Russian Federation


Лучше, чем я ожидал. Вроде все по канонам, но зацепиться особо не за что.
Go to the top of the page
  Insert nick Quick quote
+Quote Post

Reply to this topicStart new topic
1 User(s) are reading this topic (1 Guests and 0 Anonymous Users)
0 Members:

 



- Lo-Fi Version Support form
Copyrights and abuse reports form
Time is now: 18th July 2019 - 21:12:32