Welcome Guest ( Log In | Register )

> Releases Upload / Добавление релизов

Добавить релиз тут / Click here to add release
Рекомендованные обменники / Recommended file shares

> Alyaz - Portrait (2019), Instrumental/Progressive Metal/Djent
post Jan 11 2019, 12:58:32
Post #1

Serial Uploader
Group Icon
Group: V.I.P
Posts: 33,602
Releases: 31862
From: Lithuania
On Forums: 10 years 7 months
Thanks: 363635 time(s)
Lithuania


(IMG:https://metalarea.org/images/audiocovers/2019_Jan/acov_tid315737_thumb.jpg)

*Artist: Alyaz
*Album: Portrait
*Year: 2019
*Genre: Instrumental/Progressive Metal/Djent
*Country: United States (IMG:https://metalarea.org/forum/style_images/flags/United%20States.png)
*Format: mp3@CBR320kbps
*Size: 90MB

Tracklist:
01. Within Synergy (feat. Dave Dunsire)
02. Corroded Vein (feat. Per Nilsson)
03. Episode 1 Aurora
04. Aberration (feat. Adam Rafowitz)
05. Out of My Reach (feat. Keven Eknes)
06. Episode 2 Miasma
07. Portrait (feat. Al Joseph & Dan Sugarman)
******************************
Total playing time: 39:19

Technical info
(IMG:https://metalarea.org/images/spectrogram/2019_Jan/e045c78122d207f25211d7a14aa5407d.png)
Input File: 02. Corroded Vein (feat. Per Nilsson).mp3
Channels : 2
Sample Rate : 44100
Precision : 16-bit
Duration : 00:05:02.33 = 13332797 samples = 22674.8 CDDA sectors
File Size : 12.3M
Bit Rate : 325k
Sample Encoding: MPEG audio (layer I, II or III)
Comments :
Title=Corroded Vein (feat. Per Nilsson)
Artist=Alyaz
Album=Portrait
Tracknumber=2/7/7
Year=2019
Discnumber=1/1/1



Register


Thanks:
Go to the top of the page
  Insert nick Quick quote
+Quote Post
 
Start new topic
Replies (1 - 2)
post Jan 11 2019, 13:45:26
Post #2

на аватаре не я
**************
Group: Металариец
Posts: 4,480
Releases: 6
From: "Самопровозглашенная ДНР" (с)
On Forums: 9 years 6 months
Thanks: 2123 time(s)
Russian Federation


Что веселит у неизвестных групп, так это манера обозначать в скобках участие точно таких же неизвестных музыкантов.


Thanks:
Go to the top of the page
  Insert nick Quick quote
+Quote Post
post Jan 11 2019, 15:11:32
Post #3

тебе 28, а ты все реверсами балуешься
***********
Group: Металариец
Posts: 1,517
Releases: 4
On Forums: 10 years 5 months
Thanks: 390 time(s)
Russian Federation


ЦИТАТА(Shadowman @ Jan 11 2019, 15:45:26) *
Что веселит у неизвестных групп, так это манера обозначать в скобках участие точно таких же неизвестных музыкантов.


(IMG:style_emoticons/default/1488.gif)


Thanks:
(1) Shadowman,
Go to the top of the page
  Insert nick Quick quote
+Quote Post

Reply to this topicStart new topic
1 User(s) are reading this topic (1 Guests and 0 Anonymous Users)
0 Members:

 



- Lo-Fi Version Support form
Copyrights and abuse reports form
Time is now: 22nd January 2019 - 22:49:17