Welcome Guest ( Log In | Register )

 
Reply to this topicStart new topic
> Erythrite Throne - We Sleep Forever In Decay (2018), Black Metal
post Jan 11 2019, 13:08:53
Post #1

Аннигилятор пивА
Group Icon
Group: V.I.P
Posts: 52,356
Releases: 16556
From: Koenigsberg - TILZIT
On Forums: 12 years 11 months
Thanks: 360777 time(s)
Russian Federation


(IMG:https://metalarea.org/images/audiocovers/2019_Jan/acov_tid315740_thumb.jpg)

*Artist: Erythrite Throne
*Album: We Sleep Forever In Decay
*Year: 2018
*Genre: Black Metal
*Country: Canada (IMG:https://metalarea.org/forum/style_images/flags/Canada.png)
*Format: mp3@CBR320kbps
*Size: 101MB

Tracklist:
01. Into Decay 02:19
02. Caligula's Dream 04:393.Legion 04:21
04. Festering Sore 04:56
05. Plague Seepage 04:34
06. The First Snowfall 01:55
07. Black Mass 02:19
08. Prayer 03:46
09. Eldritch Ritual 03:27
10. Hagraven's Curse 04:41
11. Cries of the Elder Ones 03:32
12. Abyss Walker 02:02
******************************
Total playing time: 42:31



Technical info
(IMG:https://metalarea.org/images/spectrogram/2019_Jan/7b418f854dfe98cdb2c975567e99afbc.png)
Input File: Erythrite Throne - We Sleep Forever in Decay - 02 Caligula\'s Dream.mp3
Channels : 2
Sample Rate : 44100
Precision : 16-bit
Duration : 00:04:39.87 = 12342047 samples = 20989.9 CDDA sectors
File Size : 11.4M
Bit Rate : 325k
Sample Encoding: MPEG audio (layer I, II or III)
Comments :
Title=Caligula's Dream
Artist=Erythrite Throne
Album=We Sleep Forever in Decay
Tracknumber=2
Year=2018



Register


Go to the top of the page
  Insert nick Quick quote
+Quote Post

Reply to this topicStart new topic
2 User(s) are reading this topic (2 Guests and 0 Anonymous Users)
0 Members:

 



- Lo-Fi Version Support form
Copyrights and abuse reports form
Time is now: 26th May 2019 - 12:57:37