Welcome Guest ( Log In | Register )

> Releases Upload / Добавление релизов

Добавить релиз тут / Click here to add release
Рекомендованные обменники / Recommended file shares

 
Reply to this topicStart new topic
> Erythrite Throne - Fleeting Voices Under The Deathmoon's Embrace (2019), Black Metal
post Jan 11 2019, 13:09:12
Post #1

Аннигилятор пивА
Group Icon
Group: V.I.P
Posts: 51,494
Releases: 16175
From: Koenigsberg - TILZIT
On Forums: 12 years 7 months
Thanks: 351777 time(s)
Russian Federation


(IMG:https://metalarea.org/images/audiocovers/2019_Jan/acov_tid315741_thumb.jpg)

*Artist: Erythrite Throne
*Album: Fleeting Voices Under The Deathmoon's Embrace
*Year: 2019
*Genre: Black Metal
*Country: Canada (IMG:https://metalarea.org/forum/style_images/flags/Canada.png)
*Format: mp3@CBR320kbps
*Size: 113MB

Tracklist:
01. Foreshadowing the Deathmoon 03:29
02. Cries in Absentia 03:12
03. Spider Veins 02:54
04. Quartz Coffin 02:19
05. Apparitions of Impending Doom 03:29
06. Rat Queen 04:39
07. Usurper's Sword 06:24
08. Dwelling Shadows of The Great War 03:46
09. Guarding the Entrance to the Dark Forest 03:46
10. Sounds of the Black Death 01:25
11. In The Age of Decay 04:48
12. Fleeting Voices Under the Deathmoon's Embrace 04:21
13. Forgotten Mysticism of the Ancient Forest 04:13
******************************
Total playing time: 48:45



Technical info
(IMG:https://metalarea.org/images/spectrogram/2019_Jan/49219ca99301ea90051961d79fe15be2.png)
Input File: Erythrite Throne - Fleeting Voices Under the Deathmoon\'s Embrace - 02 Cries in Absentia.mp3
Channels : 2
Sample Rate : 44100
Precision : 16-bit
Duration : 00:03:12.12 = 8472272 samples = 14408.6 CDDA sectors
File Size : 7.78M
Bit Rate : 324k
Sample Encoding: MPEG audio (layer I, II or III)
Comments :
Title=Cries in Absentia
Artist=Erythrite Throne
Album=Fleeting Voices Under the Deathmoon's Embrace
Tracknumber=2
Year=2019



Register


Go to the top of the page
  Insert nick Quick quote
+Quote Post

Reply to this topicStart new topic
1 User(s) are reading this topic (1 Guests and 0 Anonymous Users)
0 Members:

 



- Lo-Fi Version Support form
Copyrights and abuse reports form
Time is now: 20th January 2019 - 02:31:11