Welcome Guest ( Log In | Register )

> Releases Upload / Добавление релизов

Добавить релиз тут / Click here to add release
Рекомендованные обменники / Recommended file shares

 
Reply to this topicStart new topic
> Atomization - Into Oblivion [single] (2019), Black/Doom Metal (D5)
post Jan 11 2019, 13:58:13
Post #1

Serial Uploader
Group Icon
Group: V.I.P
Posts: 33,581
Releases: 31840
From: Lithuania
On Forums: 10 years 7 months
Thanks: 363488 time(s)
Lithuania


(IMG:https://metalarea.org/images/audiocovers/2019_Jan/acov_tid315742_thumb.jpg)

*Artist: Atomization
*Album: Into Oblivion [single]
*Year: 2019
*Genre: Black/Doom Metal
*Country: Netherlands (IMG:https://metalarea.org/forum/style_images/flags/Netherlands.png)
*Format: mp3@CBR320kbps
*Size: 19MB

Tracklist:
01. Into Oblivion 08:06
******************************
Total playing time: 8:06




Technical info
(IMG:https://metalarea.org/images/spectrogram/2019_Jan/d8d9d13305594614d360de152dcc4ac9.png)
Input File: 01. Into Oblivion.mp3
Channels : 2
Sample Rate : 44100
Precision : 16-bit
Duration : 00:08:06.92 = 21473304 samples = 36519.2 CDDA sectors
File Size : 19.7M
Bit Rate : 324k
Sample Encoding: MPEG audio (layer I, II or III)
Comments :
Title=Into Oblivion
Artist=Atomization
Album=Into Oblivion
Tracknumber=1
Year=2019



Register


Go to the top of the page
  Insert nick Quick quote
+Quote Post

Reply to this topicStart new topic
2 User(s) are reading this topic (2 Guests and 0 Anonymous Users)
0 Members:

 



- Lo-Fi Version Support form
Copyrights and abuse reports form
Time is now: 20th January 2019 - 02:37:56