Welcome Guest ( Log In | Register )

> Releases Upload / Добавление релизов

Добавить релиз тут / Click here to add release
Рекомендованные обменники / Recommended file shares

 
Reply to this topicStart new topic
> Catatonic Profanation - Dissected Creation (2019), Brutal Death Metal
post Jan 11 2019, 14:16:35
Post #1

Serial Uploader
Group Icon
Group: V.I.P
Posts: 33,580
Releases: 31840
From: Lithuania
On Forums: 10 years 7 months
Thanks: 363488 time(s)
Lithuania


(IMG:https://metalarea.org/images/audiocovers/2019_Jan/acov_tid315743_thumb.jpg)

*Artist: Catatonic Profanation
*Album: Dissected Creation
*Year: 2019
*Genre: Brutal Death Metal
*Country: United States (IMG:https://metalarea.org/forum/style_images/flags/United%20States.png)
*Format: mp3@CBR320kbps
*Size: 76MB

Tracklist:
01. Neurological Emaciation 02:45
02. Contorted Perception 02:57
03. Dissected Creation 02:57
04. Beyond the Decomposed 03:22
05. Tyrannical Oppression 03:34
06. Mandatory Vasectomy 03:42
07. Disemboweled Corpse 03:05
08. Rusty Hacksaw Castration 03:59
09. Somatic Degeneracy 03:36
10. Vermin Mutilation 02:50
******************************
Total playing time: 32:47




Technical info
(IMG:https://metalarea.org/images/spectrogram/2019_Jan/ddd72d1c7f4ff2a131a8f2b3fedc1608.png)
Input File: 02. Contorted Perception.mp3
Channels : 2
Sample Rate : 44100
Precision : 16-bit
Duration : 00:02:57.15 = 7812139 samples = 13286 CDDA sectors
File Size : 7.23M
Bit Rate : 326k
Sample Encoding: MPEG audio (layer I, II or III)
Comments :
Title=Contorted Perception
Artist=Catatonic Profanation
Album=Dissected Creation
Tracknumber=2
Year=2019



Register


Go to the top of the page
  Insert nick Quick quote
+Quote Post

Reply to this topicStart new topic
2 User(s) are reading this topic (2 Guests and 0 Anonymous Users)
0 Members:

 



- Lo-Fi Version Support form
Copyrights and abuse reports form
Time is now: 20th January 2019 - 01:46:47