Welcome Guest ( Log In | Register )

 
Reply to this topicStart new topic
> Catatonic Profanation - Rancid Vexations [ep] (2018), Brutal Death Metal
post Jan 11 2019, 14:25:25
Post #1

Serial Uploader
Group Icon
Group: V.I.P
Posts: 34,371
Releases: 32603
From: Lithuania
On Forums: 10 years 9 months
Thanks: 372140 time(s)
Lithuania


(IMG:https://metalarea.org/images/audiocovers/2019_Jan/acov_tid315744_thumb.jpg)

*Artist: Catatonic Profanation
*Album: Rancid Vexations [ep]
*Year: 2018
*Genre: Brutal Death Metal
*Country: United States (IMG:https://metalarea.org/forum/style_images/flags/United%20States.png)
*Format: mp3@CBR320kbps
*Size: 21MB

Tracklist:
01. Deluded Cleansing 03:34
02. Father of the Void 02:38
03. Engorged in Maggots 02:45
******************************
Total playing time: 8:57



(IMG:https://metalarea.org/images/youtube.png)

Technical info
(IMG:https://metalarea.org/images/spectrogram/2019_Jan/c63ebe934fb7f91c778fa7b5fd29f415.png)
Input File: 02. Father of the Void (ft. Eli Vincent of Dehumanize).mp3
Channels : 2
Sample Rate : 44100
Precision : 16-bit
Duration : 00:02:38.62 = 6995318 samples = 11896.8 CDDA sectors
File Size : 6.53M
Bit Rate : 329k
Sample Encoding: MPEG audio (layer I, II or III)
Comments :
Title=Father of the Void (ft. Eli Vincent of Dehumanize)
Artist=Catatonic Profanation
Album=Rancid Vexations
Tracknumber=2
Year=2018



Register


Go to the top of the page
  Insert nick Quick quote
+Quote Post

Reply to this topicStart new topic
1 User(s) are reading this topic (1 Guests and 0 Anonymous Users)
0 Members:

 



- Lo-Fi Version Support form
Copyrights and abuse reports form
Time is now: 25th March 2019 - 10:48:51