Welcome Guest ( Log In | Register )

 
Reply to this topicStart new topic
> Catatonic Profanation - Euphoric Dismemberment [ep] (2018), Brutal Death Metal
post Jan 11 2019, 14:33:11
Post #1

Serial Uploader
Group Icon
Group: V.I.P
Posts: 35,215
Releases: 33430
From: Lithuania
On Forums: 10 years 11 months
Thanks: 383329 time(s)
Lithuania


(IMG:https://metalarea.org/images/audiocovers/2019_Jan/acov_tid315745_thumb.jpg)

*Artist: Catatonic Profanation
*Album: Euphoric Dismemberment [ep]
*Year: 2018
*Genre: Brutal Death Metal
*Country: United States (IMG:https://metalarea.org/forum/style_images/flags/United%20States.png)
*Format: mp3@CBR320kbps
*Size: 21MB

Tracklist:
01. Stench of Rotting Flesh 03:19
02. Drowned in Vermin Seepage 02:35
03. Manipulated Offerings 03:13
******************************
Total playing time: 9:07



(IMG:https://metalarea.org/images/youtube.png)

Technical info
(IMG:https://metalarea.org/images/spectrogram/2019_Jan/b9397b217bc5505a96da50da575c3b7d.png)
Input File: 02. Drowned in Vermin Seepage (ft. Niko Apostolakis of Left to Drown).mp3
Channels : 2
Sample Rate : 44100
Precision : 16-bit
Duration : 00:02:35.15 = 6842071 samples = 11636.2 CDDA sectors
File Size : 6.41M
Bit Rate : 330k
Sample Encoding: MPEG audio (layer I, II or III)
Comments :
Title=Drowned in Vermin Seepage (ft. Niko Apostolakis of Left to Drown)
Artist=Catatonic Profanation
Album=Euphoric Dismemberment
Tracknumber=2
Year=2018



Register


Go to the top of the page
  Insert nick Quick quote
+Quote Post

Reply to this topicStart new topic
2 User(s) are reading this topic (2 Guests and 0 Anonymous Users)
0 Members:

 



- Lo-Fi Version Support form
Copyrights and abuse reports form
Time is now: 26th May 2019 - 12:31:57