Welcome Guest ( Log In | Register )

> Releases Upload / Добавление релизов

Добавить релиз тут / Click here to add release
Рекомендованные обменники / Recommended file shares

 
Reply to this topicStart new topic
> Catatonic Profanation - Parasitic Devourment [ep] (2017), Brutal Death Metal
post Jan 11 2019, 14:42:53
Post #1

Serial Uploader
Group Icon
Group: V.I.P
Posts: 33,581
Releases: 31840
From: Lithuania
On Forums: 10 years 7 months
Thanks: 363488 time(s)
Lithuania


(IMG:https://metalarea.org/images/audiocovers/2019_Jan/acov_tid315746_thumb.jpg)

*Artist: Catatonic Profanation
*Album: Parasitic Devourment [ep]
*Year: 2017
*Genre: Brutal Death Metal
*Country: United States (IMG:https://metalarea.org/forum/style_images/flags/United%20States.png)
*Format: mp3@CBR320kbps
*Size: 22MB

Tracklist:
01. Ingestion Decay 02:44
02. Reformation to Enslavement 02:25
03. Ritualistic Tourture 02:39
04. Parasitic Devourment 01:44
******************************
Total playing time: 9:32



(IMG:https://metalarea.org/images/youtube.png)

Technical info
(IMG:https://metalarea.org/images/spectrogram/2019_Jan/0b7723dfee7a04571e67dac957f68512.png)
Input File: 02. Reformation to Enslavement.mp3
Channels : 2
Sample Rate : 44100
Precision : 16-bit
Duration : 00:02:25.75 = 6427355 samples = 10930.9 CDDA sectors
File Size : 5.98M
Bit Rate : 328k
Sample Encoding: MPEG audio (layer I, II or III)
Comments :
Title=Reformation to Enslavement
Artist=Catatonic Profanation
Album=Parasitic Devourment
Tracknumber=2
Year=2017



Register


Go to the top of the page
  Insert nick Quick quote
+Quote Post

Reply to this topicStart new topic
1 User(s) are reading this topic (1 Guests and 0 Anonymous Users)
0 Members:

 



- Lo-Fi Version Support form
Copyrights and abuse reports form
Time is now: 20th January 2019 - 02:03:38