Welcome Guest ( Log In | Register )

> Ravenscar - Red Moon [ep] (2018), Folk Metal
post Jan 11 2019, 15:12:55
Post #1

Serial Uploader
Group Icon
Group: V.I.P
Posts: 34,371
Releases: 32603
From: Lithuania
On Forums: 10 years 9 months
Thanks: 372140 time(s)
Lithuania


(IMG:https://metalarea.org/images/audiocovers/2019_Jan/acov_tid315747_thumb.jpg)

*Artist: Ravenscar
*Album: Red Moon [ep]
*Year: 2018
*Genre: Folk Metal
*Country: Belgium (IMG:https://metalarea.org/forum/style_images/flags/Belgium.png)
*Format: mp3@CBR320kbps
*Size: 39MB

Tracklist:
01. Red Moon 04:39
02. Drink 03:35
03. The Fallen Ones 08:40
******************************
Total playing time: 16:54



(IMG:https://metalarea.org/images/youtube.png)

Extended info
Exclusive for Metalarea.org


Technical info
(IMG:https://metalarea.org/images/spectrogram/2019_Jan/5f44efb5f6040d450055c6ebd8884f29.png)
Input File: 02. Drink.mp3
Channels : 2
Sample Rate : 44100
Precision : 16-bit
Duration : 00:03:36.00 = 9525380 samples = 16199.6 CDDA sectors
File Size : 8.68M
Bit Rate : 321k
Sample Encoding: MPEG audio (layer I, II or III)
Comments :
Title=Drink
Artist=RavenscaR
Album=Red Moon
Tracknumber=2/3
Year=2018



Register


Go to the top of the page
  Insert nick Quick quote
+Quote Post
 
Start new topic
Replies (1 - 1)
post Jan 11 2019, 17:50:46
Post #2

Шесть Литров
******
Group: Металариец
Posts: 674
Releases: 0
From: Черкассы
On Forums: 7 years 3 months
Thanks: 90 time(s)
Ukraine


*Стиль:Pagan Viking Metal
Go to the top of the page
  Insert nick Quick quote
+Quote Post

Reply to this topicStart new topic
1 User(s) are reading this topic (1 Guests and 0 Anonymous Users)
0 Members:

 



- Lo-Fi Version Support form
Copyrights and abuse reports form
Time is now: 25th March 2019 - 10:29:01