Welcome Guest ( Log In | Register )

 
Reply to this topicStart new topic
> Schatten - Einsamkeit (2018), Depressive Black Metal/Black 'n' Roll/Ambient
post Jan 11 2019, 15:31:12
Post #1

Serial Uploader
Group Icon
Group: V.I.P
Posts: 35,215
Releases: 33430
From: Lithuania
On Forums: 10 years 11 months
Thanks: 383319 time(s)
Lithuania


(IMG:https://metalarea.org/images/audiocovers/2019_Jan/acov_tid315748_thumb.jpg)

*Artist: Schatten
*Album: Einsamkeit
*Year: 2018
*Genre: Depressive Black Metal/Black 'n' Roll/Ambient
*Country: Germany (IMG:https://metalarea.org/forum/style_images/flags/Germany.png)
*Format: mp3@CBR320kbps
*Size: 76MB

Tracklist:
01. Away 05:56
02. Schwarzer Mond 07:29
03. Surrender 08:04
04. Sunnun Tag 04:31
05. The place beyond the hill 03:04
06. Condemned 04:29
******************************
Total playing time: 33:33


(IMG:https://metalarea.org/images/youtube.png)

Technical info
(IMG:https://metalarea.org/images/spectrogram/2019_Jan/ae89d0573fe6b54bc1839dc9d21adc17.png)
Input File: 02. Schwarzer Mond.mp3
Channels : 2
Sample Rate : 44100
Precision : 16-bit
Duration : 00:07:29.88 = 19839796 samples = 33741.1 CDDA sectors
File Size : 18.0M
Bit Rate : 321k
Sample Encoding: MPEG audio (layer I, II or III)
Comments :
Title=Schwarzer Mond
Artist=Schatten
Album=Einsamkeit
Tracknumber=2/6
Year=2018



Register


Go to the top of the page
  Insert nick Quick quote
+Quote Post

Reply to this topicStart new topic
2 User(s) are reading this topic (2 Guests and 0 Anonymous Users)
0 Members:

 



- Lo-Fi Version Support form
Copyrights and abuse reports form
Time is now: 26th May 2019 - 11:59:37