Welcome Guest ( Log In | Register )

> Releases Upload / Добавление релизов

Добавить релиз тут / Click here to add release
Рекомендованные обменники / Recommended file shares

> Dreamarcher - Harding [ep] (2018), Progressive Sludge/Doom Metal
post Jan 11 2019, 16:29:24
Post #1

Serial Uploader
Group Icon
Group: V.I.P
Posts: 33,581
Releases: 31840
From: Lithuania
On Forums: 10 years 7 months
Thanks: 363488 time(s)
Lithuania


(IMG:https://metalarea.org/images/audiocovers/2019_Jan/acov_tid315751_thumb.jpg)

*Artist: Dreamarcher
*Album: Harding [ep]
*Year: 2018
*Genre: Progressive Sludge/Doom Metal
*Country: Norway (IMG:https://metalarea.org/forum/style_images/flags/Norway.png)
*Format: mp3@CBR320kbps
*Size: 42MB

Tracklist:
01. Dalen 2:43
02. Aske 7:03
03. Omuta 8:21
******************************
Total playing time: 18:07



Technical info
(IMG:https://metalarea.org/images/spectrogram/2019_Jan/2e3b19522efdaa3c8ea2384b2fd9744c.png)
Input File: 2 Aske.mp3
Channels : 2
Sample Rate : 44100
Precision : 16-bit
Duration : 00:07:02.68 = 18640364 samples = 31701.3 CDDA sectors
File Size : 17.4M
Bit Rate : 330k
Sample Encoding: MPEG audio (layer I, II or III)
Comments :
Title=Aske
Artist=Dreamarcher
Album=Harding
Tracknumber=2/3/3
Year=2018
Genre=Progressive Black / Sludge Metal
Discnumber=1/1/1



Register


Go to the top of the page
  Insert nick Quick quote
+Quote Post
 
Start new topic
Replies (1 - 1)
post Jan 12 2019, 07:02:30
Post #2

Пусто
**********
Group: Металариец
Posts: 1,327
Releases: 27
From: Санкт-Петербург
On Forums: 12 years 2 weeks
Thanks: 1351 time(s)
Russian Federation


в тегах полная чушь. никакого сладж дума. да и прогрессив натянутый.
в первом трек заигрывания с блэкгейзом (похоже на Астроноид), а в целом больше на пост-хаку похоже
Go to the top of the page
  Insert nick Quick quote
+Quote Post

Reply to this topicStart new topic
2 User(s) are reading this topic (2 Guests and 0 Anonymous Users)
0 Members:

 



- Lo-Fi Version Support form
Copyrights and abuse reports form
Time is now: 20th January 2019 - 01:55:14