Welcome Guest ( Log In | Register )

> Полуврак - Тътени Огласят Тишината (2018), Black Metal
post Jan 11 2019, 16:50:16
Post #1


Group Icon
Group: Curation team
Posts: 1,849
Releases: 137
On Forums: 12 years 8 months
Thanks: 13761 time(s)
Russian Federation


(IMG:http://metalarea.org/images/audiocovers/2019_Jan/acov_tid315753_thumb.jpg)

*Artist: Полуврак
*Album: Тътени Огласят Тишината
*Year: 2018
*Genre: Black Metal
*Country: Bulgaria (IMG:http://metalarea.org/forum/style_images/flags/Bulgaria.png)
*Format: mp3@CBR320kbps
*Size: 88MB

Tracklist:
1. Кръстопът 5:58
2. Бесове 4:00
3. Жив съм! 3:25
4. Мъглата се разстилаше 3:26
5. Участ 4:10
6. Съкровището на Ревуля 6:06
7. Поглед в мрака бездънен 5:24
8. Сияние 7:08
******************************
Total playing time: 39:37

(IMG:http://metalarea.org/images/youtube.png)

Extended info
Lower Silesian Stronghold, October 10th, 2018.
CD, limited to 500 copies.

Отличный блек из Болгарии со своим лицом. Чистый вокал с хрипотцой, хорошая атмосфера.

Мой CD rip (EAC + lame 3.99.2).


Technical info
(IMG:http://metalarea.org/images/spectrogram/2019_Jan/a633d3935c16f2593382a85a5e05484b.png)
Input File: 01 Трек01.mp3
Channels : 2
Sample Rate : 44100
Precision : 16-bit
Duration : 00:05:57.96 = 15786036 samples = 26847 CDDA sectors
File Size : 14.3M
Bit Rate : 320k
Sample Encoding: MPEG audio (layer I, II or III)
Comments :
Title=Кръстопът
Artist=Полуврак
Album=Тътени огласят тишината
Tracknumber=01/08
Year=2018
Genre=Black Metal
Discnumber=1/1



Register


Go to the top of the page
  Insert nick Quick quote
+Quote Post
 
Start new topic
Replies (1 - 5)
post Jan 11 2019, 17:06:33
Post #2

the faceless one
Group Icon
Group: S-moderation team
Posts: 9,014
Releases: 1783
On Forums: 10 years 9 months
Thanks: 105434 time(s)
Russian Federation


HQ Cover
(IMG:http://funkyimg.com/p/2Q5fX.png)

Register


Thanks:
Go to the top of the page
  Insert nick Quick quote
+Quote Post
post Jan 13 2019, 10:39:33
Post #3

Necromancer
Group Icon
Group: Curation team
Posts: 10,875
Releases: 271
From: Зеленоград
On Forums: 12 years 7 months
Thanks: 8716 time(s)
Russian Federation


RADeus, спасибо. (IMG:style_emoticons/default/true_black.gif)


Thanks:
(1) RADeus,
Go to the top of the page
  Insert nick Quick quote
+Quote Post
post Jan 18 2019, 18:18:17
Post #4

While Waiting the Worms
*******
Group: Металариец
Posts: 795
Releases: 0
On Forums: 5 years 5 months
Thanks: 1082 time(s)
Unknown


Атмосфера и правда хороша.
Всё довольно простенько и ненавязчиво, но гармонично, искренне и весьма цепляюще.
А к вокалу быстро привыкаешь.
Go to the top of the page
  Insert nick Quick quote
+Quote Post
post Jan 19 2019, 11:32:11
Post #5

да. нет. иди на йух.
**************
Group: Металариец
Posts: 2,771
Releases: 0
On Forums: 3 years 3 months
Thanks: 1613 time(s)
Unknown


ЦИТАТА(Sangreal @ 18th January 2019 - 22:18:17) *
А к вокалу быстро привыкаешь.

и от скрима отвыкаешь)
скрим мы наслушались в девяностые, пусть теперь чуваки просто душевно поорут.
ЦИТАТА(Sangreal @ 18th January 2019 - 22:18:17) *
Всё довольно простенько и ненавязчиво, но гармонично, искренне и весьма цепляюще.

основная причина ослабления моего интереса ко всякому музыкальному нагромождению.
как пример, недавний релиз от новозеландцев В. не утверждаю, что материал плох, просто мозги уже замылены, в этом случае только два варианта: или АХ или просто ничего не слышишь. громоздкими середняками мир полнится, а йа как слушатель слишком необъёмен, чтобы всё это осознать и выдержать.
и во мне нет всех этих адских образов и душевных вакханалий, просто поедающая во всех отношениях людская сволочь.
"чёрт, кажется перепохмелился"
и да. сабж искренне незамысловат и оголтел(слово паразит).
"танцует"
Go to the top of the page
  Insert nick Quick quote
+Quote Post
post Feb 18 2019, 15:40:05
Post #6


Group Icon
Group: Curation team
Posts: 1,849
Releases: 137
On Forums: 12 years 8 months
Thanks: 13761 time(s)
Russian Federation


Scans (18 MB):
Register


Thanks:
Go to the top of the page
  Insert nick Quick quote
+Quote Post

Reply to this topicStart new topic
2 User(s) are reading this topic (2 Guests and 0 Anonymous Users)
0 Members:

 



- Lo-Fi Version Support form
Copyrights and abuse reports form
Time is now: 26th May 2019 - 12:39:46